<?xml version="1.0" standalone="no"?>
<!DOCTYPE svg PUBLIC "-//W3C//DTD SVG 1.1//EN" "http://www.w3.org/Graphics/SVG/1.1/DTD/svg11.dtd" >
<svg xmlns="http://www.w3.org/2000/svg">
<metadata>Generated by IcoMoon</metadata>
<defs>
<font id="icomoon" horiz-adv-x="1024">
<font-face units-per-em="1024" ascent="960" descent="-64" />
<missing-glyph horiz-adv-x="1024" />
<glyph unicode="&#x20;" horiz-adv-x="512" d="" />
<glyph unicode="&#xe900;" glyph-name="arrow-right" d="M567.168 627.499c-16.683-16.683-16.683-43.648 0-60.331l97.835-97.835h-323.669c-23.552 0-42.667-19.115-42.667-42.667s19.115-42.667 42.667-42.667h323.669l-97.835-97.835c-16.683-16.683-16.683-43.648 0-60.331 8.32-8.32 19.243-12.501 30.165-12.501s21.845 4.181 30.165 12.501l200.832 200.832-200.832 200.832c-16.683 16.683-43.648 16.683-60.331 0z" />
<glyph unicode="&#xe901;" glyph-name="arrow-left" d="M725.333 469.334h-323.669l97.835 97.835c16.683 16.683 16.683 43.648 0 60.331s-43.648 16.683-60.331 0l-200.832-200.832 200.832-200.832c8.32-8.32 19.243-12.501 30.165-12.501s21.845 4.181 30.165 12.501c16.683 16.683 16.683 43.648 0 60.331l-97.835 97.835h323.669c23.552 0 42.667 19.115 42.667 42.667s-19.115 42.667-42.667 42.667z" />
<glyph unicode="&#xe902;" glyph-name="arrow-down" d="M712.832 371.499c-16.683 16.683-43.648 16.683-60.331 0l-97.835-97.835v323.669c0 23.552-19.072 42.667-42.667 42.667s-42.667-19.115-42.667-42.667v-323.669l-97.835 97.835c-16.683 16.683-43.648 16.683-60.331 0s-16.683-43.648 0-60.331l200.832-200.832 200.832 200.832c16.683 16.683 16.683 43.648 0 60.331z" />
<glyph unicode="&#xe903;" glyph-name="arrow-up" d="M554.667 700.331l-200.832-200.832c-16.683-16.683-16.683-43.648 0-60.331s43.648-16.683 60.331 0l97.835 97.835v-323.669c0-23.552 19.072-42.667 42.667-42.667s42.667 19.115 42.667 42.667v323.669l97.835-97.835c8.32-8.32 19.243-12.501 30.165-12.501s21.845 4.181 30.165 12.501c16.683 16.683 16.683 43.648 0 60.331l-200.832 200.832z" />
<glyph unicode="&#xe904;" glyph-name="arrow_downward" d="M854 426.667l-342-342-342 342 62 60 238-238v520h84v-520l240 238z" />
<glyph unicode="&#xe905;" glyph-name="subdirectory_arrow_right" d="M810 298.667l-256-256-60 60 154 154h-478v512h86v-428h392l-154 154 60 60z" />
<glyph unicode="&#xe906;" glyph-name="subdirectory_arrow_left" d="M470 554.667l60-60-154-154h392v428h86v-512h-478l154-154-60-60-256 256z" />
<glyph unicode="&#xe907;" glyph-name="arrow_upward" d="M170 426.667l342 342 342-342-62-60-238 238v-520h-84v520l-240-238z" />
<glyph unicode="&#xe908;" glyph-name="arrow_forward" d="M512 768.667l342-342-342-342-60 60 238 240h-520v84h520l-238 240z" />
<glyph unicode="&#xe909;" glyph-name="keyboard_arrow_up" d="M316 280.667l-60 60 256 256 256-256-60-60-196 196z" />
<glyph unicode="&#xe90a;" glyph-name="keyboard_arrow_right" d="M366 230.667l196 196-196 196 60 60 256-256-256-256z" />
<glyph unicode="&#xe90b;" glyph-name="keyboard_arrow_left" d="M658 230.667l-60-60-256 256 256 256 60-60-196-196z" />
<glyph unicode="&#xe90c;" glyph-name="keyboard_arrow_down" d="M316 572.667l196-196 196 196 60-60-256-256-256 256z" />
<glyph unicode="&#xe90d;" glyph-name="arrow-right-circle" d="M981.333 426.667c0 129.579-52.565 246.997-137.472 331.861s-202.283 137.472-331.861 137.472-246.997-52.565-331.861-137.472-137.472-202.283-137.472-331.861 52.565-246.997 137.472-331.861 202.283-137.472 331.861-137.472 246.997 52.565 331.861 137.472 137.472 202.283 137.472 331.861zM896 426.667c0-106.069-42.923-201.984-112.469-271.531s-165.461-112.469-271.531-112.469-201.984 42.923-271.531 112.469-112.469 165.461-112.469 271.531 42.923 201.984 112.469 271.531 165.461 112.469 271.531 112.469 201.984-42.923 271.531-112.469 112.469-165.461 112.469-271.531zM341.333 384h238.336l-97.835-97.835c-16.683-16.683-16.683-43.691 0-60.331s43.691-16.683 60.331 0l170.667 170.667c3.925 3.925 7.083 8.619 9.259 13.824 4.309 10.453 4.309 22.229 0 32.683-2.091 5.035-5.163 9.728-9.259 13.824l-170.667 170.667c-16.683 16.683-43.691 16.683-60.331 0s-16.683-43.691 0-60.331l97.835-97.835h-238.336c-23.552 0-42.667-19.115-42.667-42.667s19.115-42.667 42.667-42.667z" />
<glyph unicode="&#xe90e;" glyph-name="arrow-left-circle" d="M981.333 426.667c0 129.579-52.565 246.997-137.472 331.861s-202.283 137.472-331.861 137.472-246.997-52.565-331.861-137.472-137.472-202.283-137.472-331.861 52.565-246.997 137.472-331.861 202.283-137.472 331.861-137.472 246.997 52.565 331.861 137.472 137.472 202.283 137.472 331.861zM896 426.667c0-106.069-42.923-201.984-112.469-271.531s-165.461-112.469-271.531-112.469-201.984 42.923-271.531 112.469-112.469 165.461-112.469 271.531 42.923 201.984 112.469 271.531 165.461 112.469 271.531 112.469 201.984-42.923 271.531-112.469 112.469-165.461 112.469-271.531zM682.667 469.334h-238.336l97.835 97.835c16.683 16.683 16.683 43.691 0 60.331s-43.691 16.683-60.331 0l-170.667-170.667c-4.096-4.096-7.168-8.789-9.259-13.824-2.176-5.205-3.243-10.795-3.243-16.341 0-10.923 4.181-21.845 12.501-30.165l170.667-170.667c16.683-16.683 43.691-16.683 60.331 0s16.683 43.691 0 60.331l-97.835 97.835h238.336c23.552 0 42.667 19.115 42.667 42.667s-19.115 42.667-42.667 42.667z" />
<glyph unicode="&#xe90f;" glyph-name="arrow-down-circle" d="M981.333 426.667c0 129.579-52.565 246.997-137.472 331.861s-202.283 137.472-331.861 137.472-246.997-52.565-331.861-137.472-137.472-202.283-137.472-331.861 52.565-246.997 137.472-331.861 202.283-137.472 331.861-137.472 246.997 52.565 331.861 137.472 137.472 202.283 137.472 331.861zM896 426.667c0-106.069-42.923-201.984-112.469-271.531s-165.461-112.469-271.531-112.469-201.984 42.923-271.531 112.469-112.469 165.461-112.469 271.531 42.923 201.984 112.469 271.531 165.461 112.469 271.531 112.469 201.984-42.923 271.531-112.469 112.469-165.461 112.469-271.531zM469.333 597.334v-238.336l-97.835 97.835c-16.683 16.683-43.691 16.683-60.331 0s-16.683-43.691 0-60.331l170.667-170.667c3.925-3.925 8.619-7.083 13.824-9.259 10.453-4.309 22.229-4.309 32.683 0 5.035 2.091 9.728 5.163 13.824 9.259l170.667 170.667c16.683 16.683 16.683 43.691 0 60.331s-43.691 16.683-60.331 0l-97.835-97.835v238.336c0 23.552-19.115 42.667-42.667 42.667s-42.667-19.115-42.667-42.667z" />
<glyph unicode="&#xe910;" glyph-name="arrow-up-circle" d="M981.333 426.667c0 129.579-52.565 246.997-137.472 331.861s-202.283 137.472-331.861 137.472-246.997-52.565-331.861-137.472-137.472-202.283-137.472-331.861 52.565-246.997 137.472-331.861 202.283-137.472 331.861-137.472 246.997 52.565 331.861 137.472 137.472 202.283 137.472 331.861zM896 426.667c0-106.069-42.923-201.984-112.469-271.531s-165.461-112.469-271.531-112.469-201.984 42.923-271.531 112.469-112.469 165.461-112.469 271.531 42.923 201.984 112.469 271.531 165.461 112.469 271.531 112.469 201.984-42.923 271.531-112.469 112.469-165.461 112.469-271.531zM554.667 256v238.336l97.835-97.835c16.683-16.683 43.691-16.683 60.331 0s16.683 43.691 0 60.331l-170.667 170.667c-4.096 4.096-8.789 7.168-13.824 9.259-5.205 2.176-10.795 3.243-16.341 3.243-10.923 0-21.845-4.181-30.165-12.501l-170.667-170.667c-16.683-16.683-16.683-43.691 0-60.331s43.691-16.683 60.331 0l97.835 97.835v-238.336c0-23.552 19.115-42.667 42.667-42.667s42.667 19.115 42.667 42.667z" />
<glyph unicode="&#xe911;" glyph-name="arrow-up-right" d="M298.667 597.334h323.669l-353.835-353.835c-16.683-16.683-16.683-43.691 0-60.331s43.691-16.683 60.331 0l353.835 353.835v-323.669c0-23.552 19.115-42.667 42.667-42.667s42.667 19.115 42.667 42.667v426.667c0 5.803-1.152 11.307-3.243 16.341s-5.163 9.728-9.216 13.781c-0.043 0.043-0.043 0.043-0.085 0.085-3.925 3.925-8.619 7.083-13.781 9.216-5.035 2.091-10.539 3.243-16.341 3.243h-426.667c-23.552 0-42.667-19.115-42.667-42.667s19.115-42.667 42.667-42.667z" />
<glyph unicode="&#xe912;" glyph-name="arrow-right1" d="M481.835 695.168l225.835-225.835h-494.336c-23.552 0-42.667-19.115-42.667-42.667s19.115-42.667 42.667-42.667h494.336l-225.835-225.835c-16.683-16.683-16.683-43.691 0-60.331s43.691-16.683 60.331 0l298.667 298.667c3.925 3.925 7.083 8.619 9.259 13.824 4.309 10.453 4.309 22.229 0 32.683-2.091 5.035-5.163 9.728-9.259 13.824l-298.667 298.667c-16.683 16.683-43.691 16.683-60.331 0s-16.683-43.691 0-60.331z" />
<glyph unicode="&#xe913;" glyph-name="arrow-left1" d="M542.165 158.166l-225.835 225.835h494.336c23.552 0 42.667 19.115 42.667 42.667s-19.115 42.667-42.667 42.667h-494.336l225.835 225.835c16.683 16.683 16.683 43.691 0 60.331s-43.691 16.683-60.331 0l-298.667-298.667c-4.096-4.096-7.168-8.789-9.259-13.824-2.176-5.205-3.243-10.795-3.243-16.341 0-10.923 4.181-21.845 12.501-30.165l298.667-298.667c16.683-16.683 43.691-16.683 60.331 0s16.683 43.691 0 60.331z" />
<glyph unicode="&#xe914;" glyph-name="arrow-down1" d="M780.501 456.832l-225.835-225.835v494.336c0 23.552-19.115 42.667-42.667 42.667s-42.667-19.115-42.667-42.667v-494.336l-225.835 225.835c-16.683 16.683-43.691 16.683-60.331 0s-16.683-43.691 0-60.331l298.667-298.667c3.925-3.925 8.619-7.083 13.824-9.259 10.453-4.309 22.229-4.309 32.683 0 5.035 2.091 9.728 5.163 13.824 9.259l298.667 298.667c16.683 16.683 16.683 43.691 0 60.331s-43.691 16.683-60.331 0z" />
<glyph unicode="&#xe915;" glyph-name="arrow-up1" d="M243.499 396.502l225.835 225.835v-494.336c0-23.552 19.115-42.667 42.667-42.667s42.667 19.115 42.667 42.667v494.336l225.835-225.835c16.683-16.683 43.691-16.683 60.331 0s16.683 43.691 0 60.331l-298.667 298.667c-3.925 3.925-8.619 7.083-13.824 9.259s-10.795 3.243-16.341 3.243c-10.923 0-21.845-4.181-30.165-12.501l-298.667-298.667c-16.683-16.683-16.683-43.691 0-60.331s43.691-16.683 60.331 0z" />
<glyph unicode="&#xe916;" glyph-name="circle-left, left, circle-previous, arrow" d="M512-64c282.77 0 512 229.23 512 512s-229.23 512-512 512-512-229.23-512-512 229.23-512 512-512zM512 864c229.75 0 416-186.25 416-416s-186.25-416-416-416-416 186.25-416 416 186.25 416 416 416zM669.256 642.744l-90.512 90.512-285.254-285.256 285.256-285.254 90.508 90.508-194.744 194.746z" />
<glyph unicode="&#xe917;" glyph-name="circle-down, down, circle-bottom, arrow1" d="M1024 448c0 282.77-229.23 512-512 512s-512-229.23-512-512 229.23-512 512-512 512 229.23 512 512zM96 448c0 229.75 186.25 416 416 416s416-186.25 416-416-186.25-416-416-416-416 186.25-416 416zM317.256 605.256l-90.512-90.512 285.256-285.254 285.254 285.256-90.508 90.508-194.746-194.744z" />
<glyph unicode="&#xe918;" glyph-name="circle-right, right, circle-next, arrow2" d="M512 960c-282.77 0-512-229.23-512-512s229.23-512 512-512 512 229.23 512 512-229.23 512-512 512zM512 32c-229.75 0-416 186.25-416 416s186.25 416 416 416 416-186.25 416-416-186.25-416-416-416zM354.744 253.256l90.512-90.512 285.254 285.256-285.256 285.254-90.508-90.508 194.744-194.746z" />
<glyph unicode="&#xe919;" glyph-name="circle-up, up, circle-top, arrow3" d="M0 448c0-282.77 229.23-512 512-512s512 229.23 512 512-229.23 512-512 512-512-229.23-512-512zM928 448c0-229.75-186.25-416-416-416s-416 186.25-416 416 186.25 416 416 416 416-186.25 416-416zM706.744 290.744l90.512 90.512-285.256 285.254-285.254-285.256 90.508-90.508 194.746 194.744z" />
<glyph unicode="&#xe91a;" glyph-name="star-half-empty" horiz-adv-x="951" d="M677.714 404l146.857 142.857-241.143 35.429-17.143 34.286-90.857 184v-550.286l33.714-17.714 181.714-96-34.286 202.857-6.857 37.714zM936 553.714l-207.429-202.286 49.143-285.714c4-25.143-5.143-40-22.857-40-6.286 0-14.286 2.286-22.857 6.857l-256.571 134.857-256.571-134.857c-8.571-4.571-16.571-6.857-22.857-6.857-17.714 0-26.857 14.857-22.857 40l49.143 285.714-208 202.286c-24.571 24.571-16.571 48.571 17.714 53.714l286.857 41.714 128.571 260c7.429 15.429 17.714 23.429 28 23.429v0c10.286 0 20-8 28-23.429l128.571-260 286.857-41.714c34.286-5.143 42.286-29.143 17.143-53.714z" />
<glyph unicode="&#xe91b;" glyph-name="star-o" horiz-adv-x="951" d="M649.714 377.143l174.857 169.714-241.143 35.429-108 218.286-108-218.286-241.143-35.429 174.857-169.714-41.714-240.571 216 113.714 215.429-113.714zM950.857 581.143c0-10.286-7.429-20-14.857-27.429l-207.429-202.286 49.143-285.714c0.571-4 0.571-7.429 0.571-11.429 0-15.429-6.857-28.571-23.429-28.571-8 0-16 2.857-22.857 6.857l-256.571 134.857-256.571-134.857c-7.429-4-14.857-6.857-22.857-6.857-16.571 0-24 13.714-24 28.571 0 4 0.571 7.429 1.143 11.429l49.143 285.714-208 202.286c-6.857 7.429-14.286 17.143-14.286 27.429 0 17.143 17.714 24 32 26.286l286.857 41.714 128.571 260c5.143 10.857 14.857 23.429 28 23.429s22.857-12.571 28-23.429l128.571-260 286.857-41.714c13.714-2.286 32-9.143 32-26.286z" />
<glyph unicode="&#xe91c;" glyph-name="star-half" horiz-adv-x="475" d="M475.429 932.571v-765.143l-256.571-134.857c-7.429-4-14.857-6.857-22.857-6.857-16.571 0-24 13.714-24 28.571 0 4 0.571 7.429 1.143 11.429l49.143 285.714-208 202.286c-6.857 7.429-14.286 17.143-14.286 27.429 0 17.143 17.714 24 32 26.286l286.857 41.714 128.571 260c5.143 10.857 14.857 23.429 28 23.429v0z" />
<glyph unicode="&#xe91d;" glyph-name="star" horiz-adv-x="951" d="M950.857 581.143c0-10.286-7.429-20-14.857-27.429l-207.429-202.286 49.143-285.714c0.571-4 0.571-7.429 0.571-11.429 0-14.857-6.857-28.571-23.429-28.571-8 0-16 2.857-22.857 6.857l-256.571 134.857-256.571-134.857c-7.429-4-14.857-6.857-22.857-6.857-16.571 0-24 13.714-24 28.571 0 4 0.571 7.429 1.143 11.429l49.143 285.714-208 202.286c-6.857 7.429-14.286 17.143-14.286 27.429 0 17.143 17.714 24 32 26.286l286.857 41.714 128.571 260c5.143 10.857 14.857 23.429 28 23.429s22.857-12.571 28-23.429l128.571-260 286.857-41.714c13.714-2.286 32-9.143 32-26.286z" />
<glyph unicode="&#xe91e;" glyph-name="star_outline" d="M938 544.667l-306 26-120 282-120-282-306-26 232-202-70-300 264 160 264-160-70 300zM512 280.667l-160-96 42 182-142 124 188 16 72 172 72-172 188-16-142-124 42-182z" />
<glyph unicode="&#xe91f;" glyph-name="star_outline1" d="M512 280.667l160-96-42 182 142 124-188 16-72 172-72-172-188-16 142-124-42-182zM938 544.667l-232-202 70-300-264 160-264-160 70 300-232 202 306 26 120 282 120-282z" />
<glyph unicode="&#xe920;" glyph-name="star_half" d="M512 280.667l160-96-42 182 142 124-188 16-72 172v-398zM938 544.667l-232-202 70-300-264 160-264-160 70 300-232 202 306 26 120 282 120-282z" />
<glyph unicode="&#xe921;" glyph-name="youtube" d="M981.333 545.708c2.112 61.071-11.243 121.684-38.827 176.213-18.714 22.374-44.685 37.474-73.387 42.667-118.72 10.772-237.926 15.187-357.12 13.227-118.755 2.050-237.536-2.223-355.839-12.8-23.389-4.255-45.034-15.226-62.293-31.573-38.4-35.413-42.667-96-46.933-147.2-6.191-92.054-6.191-184.423 0-276.481 1.234-28.817 5.525-57.421 12.8-85.333 5.144-21.547 15.553-41.485 30.293-58.027 17.376-17.212 39.526-28.809 63.573-33.28 91.985-11.354 184.67-16.060 277.332-14.080 149.333-2.133 280.32 0 435.2 11.947 24.64 4.198 47.411 15.808 65.28 33.28 11.947 11.951 20.868 26.577 26.027 42.667 15.262 46.822 22.754 95.825 22.187 145.067 1.707 23.893 1.707 168.107 1.707 193.708zM415.575 326.4v264.108l252.585-132.694c-70.827-39.253-164.267-83.627-252.585-131.413z" />
<glyph unicode="&#xe922;" glyph-name="twitter" d="M938.667 712.532c-32.073-13.913-65.988-23.111-100.693-27.307 36.617 21.874 64.055 56.287 77.227 96.853-34.406-20.483-72.073-34.914-111.36-42.667-26.261 28.477-61.227 47.433-99.422 53.894-38.191 6.462-77.453 0.064-111.616-18.191-34.167-18.254-61.308-47.332-77.167-82.673s-19.537-74.947-10.462-112.605c-69.572 3.519-137.624 21.634-199.738 53.169s-116.898 75.783-160.796 129.871c-15.397-26.887-23.487-57.336-23.467-88.32-0.055-28.774 7.007-57.114 20.555-82.499s33.163-47.025 57.098-62.993c-27.82 0.755-55.045 8.221-79.36 21.759v-2.133c0.209-40.314 14.336-79.32 39.992-110.42s61.267-52.382 100.808-60.245c-15.221-4.634-31.024-7.074-46.933-7.253-11.013 0.128-21.998 1.126-32.853 2.987 11.26-34.679 33.050-64.99 62.339-86.707s64.619-33.766 101.074-34.466c-61.559-48.439-137.562-74.876-215.893-75.093-14.262-0.047-28.512 0.806-42.667 2.56 79.976-51.639 173.176-79.049 268.373-78.933 65.693-0.683 130.863 11.733 191.706 36.518s116.134 61.449 162.65 107.844c46.515 46.396 83.319 101.594 108.262 162.372s37.521 125.916 37.009 191.61c0 7.253 0 14.933 0 22.613 33.481 24.968 62.357 55.577 85.333 90.453z" />
<glyph unicode="&#xe923;" glyph-name="twitter2" d="M980.958 791.458c0.004 7.537-1.988 14.939-5.777 21.455-3.785 6.516-9.233 11.912-15.782 15.638s-13.973 5.65-21.508 5.575c-7.535-0.075-14.916-2.146-21.393-6.001-24.973-14.864-51.857-26.248-79.915-33.835-40.064 34.38-91.162 53.193-143.957 53-57.916-0.067-113.54-22.639-155.127-62.95-41.583-40.311-65.877-95.206-67.746-153.092-114.177 18.208-217.658 77.802-290.711 167.418-4.402 5.341-10.023 9.544-16.39 12.256s-13.293 3.854-20.193 3.328c-6.897-0.568-13.551-2.807-19.388-6.524s-10.681-8.8-14.112-14.809c-17.599-30.712-27.706-65.141-29.502-100.493s4.772-70.628 19.168-102.965l-0.083-0.083c-6.47-3.985-11.811-9.564-15.509-16.202s-5.632-14.115-5.616-21.715c-0.079-6.269 0.298-12.535 1.125-18.748 4.358-53.687 28.151-103.94 66.917-141.333-2.63-5.013-4.235-10.496-4.721-16.132s0.155-11.315 1.888-16.704c16.901-52.655 52.843-97.109 100.792-124.663-48.715-18.837-101.315-25.408-153.167-19.127-9.597 1.203-19.318-0.887-27.569-5.935s-14.542-12.749-17.841-21.841c-3.298-9.092-3.409-19.034-0.314-28.198s9.213-17.003 17.35-22.234c89.177-57.438 193.010-87.974 299.084-87.957 120.288-1.353 237.651 37.086 333.834 109.333 96.183 72.252 165.79 174.263 197.999 290.167 15.061 50.492 22.754 102.892 22.835 155.581 0 2.792 0 5.667-0.043 8.541 22.276 24.024 39.531 52.254 50.756 83.034s16.196 63.491 14.618 96.216zM839.872 654.416c-7.044-8.335-10.611-19.063-9.958-29.958 0.418-7.040 0.375-14.123 0.375-20.791-0.085-44.524-6.613-88.803-19.375-131.457-26.304-98.62-84.941-185.562-166.524-246.895-81.583-61.338-181.389-93.521-283.432-91.396-36.656-0.013-73.185 4.297-108.833 12.83 45.457 14.652 87.961 37.235 125.542 66.709 6.921 5.453 11.987 12.911 14.502 21.35 2.514 8.444 2.355 17.459-0.457 25.809s-8.138 15.62-15.249 20.821c-7.11 5.201-15.656 8.077-24.464 8.23-35.463 0.55-69.328 14.844-94.458 39.872 6.375 1.207 12.709 2.709 19 4.501 9.216 2.624 17.282 8.273 22.897 16.038 5.616 7.761 8.455 17.19 8.060 26.765s-4 18.739-10.235 26.014c-6.235 7.279-14.738 12.241-24.139 14.101-20.585 4.062-39.956 12.821-56.605 25.591s-30.131 29.205-39.395 48.030c7.711-1.050 15.471-1.702 23.25-1.958 9.241-0.137 18.287 2.667 25.829 8.004 7.543 5.342 13.192 12.945 16.129 21.705 2.815 8.845 2.67 18.362-0.413 27.115s-8.936 16.261-16.671 21.387c-18.767 12.503-34.14 29.465-44.742 49.367s-16.102 42.124-16.008 64.674c0 2.833 0.083 5.667 0.25 8.458 95.627-89.184 219.662-141.757 350.251-148.458 6.592-0.259 13.154 0.982 19.196 3.631s11.405 6.636 15.68 11.661c4.233 5.073 7.228 11.059 8.751 17.487 1.527 6.427 1.54 13.121 0.038 19.555-2.441 10.182-3.686 20.614-3.708 31.084 0.038 36.5 14.554 71.494 40.363 97.303s60.804 40.326 97.306 40.364c18.778 0.050 37.363-3.793 54.583-11.287 17.216-7.494 32.695-18.477 45.457-32.255 4.919-5.294 11.115-9.241 17.993-11.466s14.208-2.653 21.299-1.244c17.523 3.411 34.799 8.005 51.708 13.75-11.533-23.593-26.27-45.48-43.793-65.040z" />
<glyph unicode="&#xe924;" glyph-name="tumblr" d="M716.373 192c-21.961-9.075-45.372-14.135-69.12-14.933-11.362-1.237-22.852 0.149-33.591 4.053-10.743 3.904-20.442 10.223-28.356 18.466s-13.828 18.193-17.293 29.082c-3.46 10.893-4.378 22.43-2.679 33.732v265.813h170.667v128h-170.667v218.453h-124.587c-1.621-0.108-3.145-0.83-4.254-2.019s-1.724-2.755-1.719-4.381c-2.688-50.509-20.015-99.144-49.865-139.978s-70.932-72.103-118.242-89.995v-110.080h85.333v-279.040c0-95.147 70.4-230.827 256-227.84 62.72 0 132.693 27.307 148.053 49.92l-39.68 120.747z" />
<glyph unicode="&#xe925;" glyph-name="telegram" d="M949.961 856.417c-12.147 10.106-26.807 16.73-42.423 19.166-15.612 2.436-31.595 0.593-46.242-5.333l-764.627-308.708c-16.352-6.728-30.271-18.269-39.91-33.094-9.639-14.822-14.542-32.226-14.059-49.903s6.332-34.786 16.767-49.058c10.435-14.276 24.965-25.037 41.661-30.861l154.667-53.794 86.208-285.082c1.172-3.81 2.872-7.433 5.051-10.769 0.331-0.512 0.797-0.892 1.149-1.391 2.517-3.511 5.56-6.618 9.021-9.203 0.984-0.751 1.927-1.455 2.979-2.121 4.050-2.688 8.536-4.655 13.258-5.807l0.505-0.043 0.286-0.124c2.839-0.576 5.728-0.87 8.625-0.875 0.279 0 0.526 0.132 0.802 0.137 4.372 0.077 8.705 0.832 12.847 2.231 0.963 0.329 1.789 0.879 2.724 1.276 3.088 1.28 6.014 2.918 8.716 4.885 2.164 1.826 4.329 3.648 6.495 5.47l115.29 127.292 171.959-133.21c15.138-11.785 33.775-18.189 52.958-18.206 20.105 0.026 39.59 6.963 55.185 19.644 15.599 12.685 26.359 30.345 30.485 50.022l139.204 683.374c3.157 15.38 2.069 31.329-3.14 46.14s-14.349 27.927-26.441 37.943zM399.793 331.251c-5.916-5.892-9.96-13.402-11.625-21.585l-13.206-64.171-33.453 110.639 173.452 90.321-115.168-115.204zM754.001 104.96l-203.209 157.419c-8.499 6.566-19.166 9.694-29.867 8.751-10.705-0.943-20.659-5.884-27.883-13.837l-36.924-40.755 13.047 63.424 302.208 302.207c7.215 7.204 11.61 16.753 12.39 26.918s-2.108 20.273-8.137 28.493c-6.029 8.221-14.801 14.010-24.73 16.32-9.933 2.309-20.361 0.986-29.397-3.73l-433.719-225.818-158.906 58.15 767.081 306.876-141.956-684.416z" />
<glyph unicode="&#xe926;" glyph-name="social-media1" d="M803.413 557.227c-3.913 5.79-9.19 10.531-15.364 13.804s-13.060 4.98-20.049 4.969h-128v85.333h93.867c11.315 0 22.17 4.495 30.17 12.497s12.497 18.854 12.497 30.17v170.667c0 11.316-4.497 22.168-12.497 30.17s-18.854 12.497-30.17 12.497h-136.533c-65.634 0-128.576-26.072-174.985-72.481s-72.481-109.353-72.481-174.985v-93.867h-93.867c-11.316 0-22.168-4.495-30.17-12.497s-12.497-18.854-12.497-30.17v-170.667c0-11.315 4.495-22.17 12.497-30.17s18.854-12.497 30.17-12.497h93.867v-298.667c0-11.315 4.495-22.17 12.497-30.17s18.854-12.497 30.17-12.497h204.8c11.315 0 22.17 4.497 30.17 12.497s12.497 18.854 12.497 30.17v298.667h59.733c8.546-0.009 16.896 2.551 23.97 7.343s12.548 11.597 15.71 19.537l68.267 170.667c2.577 6.46 3.537 13.453 2.79 20.369-0.742 6.916-3.166 13.545-7.057 19.311zM670.72 405.333h-73.387c-11.315 0-22.17-4.497-30.17-12.497s-12.497-18.854-12.497-30.17v-298.667h-119.467v298.667c0 11.315-4.497 22.17-12.497 30.17-8.002 8-18.854 12.497-30.17 12.497h-93.867v85.333h93.867c11.316 0 22.168 4.497 30.17 12.497 8 8 12.497 18.854 12.497 30.17v136.533c0.111 42.966 17.229 84.14 47.612 114.521s71.556 47.5 114.522 47.612h93.867v-85.333h-34.133c-14.447 2.105-29.171 1.222-43.26-2.595-14.093-3.816-27.251-10.484-38.66-19.592-6.925-7.249-12.309-15.825-15.829-25.211s-5.103-19.388-4.651-29.402v-136.533c0-11.315 4.497-22.17 12.497-30.17s18.854-12.497 30.17-12.497h107.52l-34.133-85.333z" />
<glyph unicode="&#xe927;" glyph-name="social-media2" d="M512 661.333c-42.193 0-83.439-12.512-118.522-35.953s-62.426-56.759-78.573-95.742c-16.147-38.98-20.371-81.873-12.14-123.26 8.232-41.382 28.55-79.394 58.385-109.227 29.835-29.837 67.846-50.155 109.228-58.385 41.387-8.235 84.279-4.006 123.26 12.139s72.299 43.49 95.74 78.571c23.445 35.085 35.955 76.331 35.955 118.524 0 56.58-22.477 110.842-62.485 150.849-40.004 40.008-94.268 62.484-150.848 62.484zM512 320c-25.314 0-50.065 7.505-71.113 21.572-21.050 14.063-37.456 34.057-47.144 57.442-9.688 23.39-12.223 49.126-7.284 73.958 4.939 24.828 17.13 47.637 35.031 65.537 17.9 17.901 40.709 30.092 65.537 35.031 24.832 4.939 50.569 2.404 73.958-7.284 23.386-9.688 43.379-26.094 57.442-47.144 14.067-21.047 21.572-45.798 21.572-71.113 0-33.946-13.487-66.505-37.491-90.509s-56.563-37.491-90.509-37.491zM725.333 704c-8.439 0-16.687-2.502-23.706-7.191-7.014-4.688-12.484-11.352-15.714-19.148s-4.075-16.375-2.428-24.652c1.647-8.276 5.709-15.879 11.678-21.846 5.965-5.967 13.568-10.031 21.845-11.677s16.858-0.801 24.653 2.428c7.795 3.229 14.46 8.698 19.149 15.715s7.189 15.266 7.189 23.704c0 11.316-4.497 22.168-12.497 30.17s-18.854 12.497-30.17 12.497zM936.107 608.427c-0.708 36.462-7.633 72.535-20.48 106.667-11.913 31.058-30.225 59.264-53.747 82.786s-51.729 41.834-82.786 53.747c-34.129 12.847-70.204 19.773-106.667 20.48-41.387 2.56-55.040 2.56-160.427 2.56s-119.040 0-160.427-2.56c-36.462-0.707-72.535-7.633-106.667-20.48-31.058-11.913-59.264-30.225-82.786-53.747s-41.834-51.728-53.747-82.786c-12.847-34.131-19.773-70.205-20.48-106.667-2.56-41.813-2.56-55.467-2.56-160.427s0-118.613 2.56-160.427c0.707-36.463 7.633-72.538 20.48-106.667 11.913-31.057 30.225-59.264 53.747-82.786s51.728-41.835 82.786-53.747c34.131-12.847 70.205-19.772 106.667-20.48 42.667 0 55.040-2.56 160.427-2.56s119.040 0 160.427 2.56c36.463 0.708 72.538 7.633 106.667 20.48 31.057 11.913 59.264 30.225 82.786 53.747s41.835 51.729 53.747 82.786c12.847 34.129 19.772 70.204 20.48 106.667 0 42.667 2.56 55.467 2.56 160.427s0 118.613-2.56 160.427zM850.773 291.413c-0.747-27.076-5.79-53.862-14.933-79.36-7.561-20.151-19.511-38.37-34.987-53.333-14.874-15.479-33.126-27.311-53.333-34.56-25.557-9.519-52.523-14.711-79.787-15.36-40.107 0-52.48-2.133-156.16-2.133s-115.627 0-155.733 0c-27.22 0.704-54.155 5.743-79.787 14.933-20.153 7.561-38.371 19.511-53.333 34.987-15.482 14.874-27.31 33.126-34.56 53.333-9.481 25.421-14.671 52.237-15.36 79.36 0 42.667 0 53.333 0 156.587s0 115.627 0 156.587c0.736 27.255 5.924 54.206 15.36 79.787 7.363 20.026 19.18 38.118 34.56 52.907 14.873 15.482 33.127 27.31 53.333 34.56 25.557 9.519 52.522 14.71 79.787 15.36 40.107 4.267 52.48 4.267 156.16 4.267s116.053 0 156.16 0c27.396-0.697 54.498-5.885 80.213-15.36 20.028-7.363 38.118-19.18 52.907-34.56 15.479-14.873 27.311-33.127 34.56-53.333 10.445-25.965 16.363-53.529 17.493-81.493 0-42.667 2.133-53.333 2.133-156.587s-2.133-115.627-2.133-156.587h-2.56z" />
<glyph unicode="&#xe928;" glyph-name="social-media" d="M803.413 557.227c-3.913 5.79-9.19 10.531-15.364 13.804s-13.060 4.98-20.049 4.969h-128v85.333h93.867c11.315 0 22.17 4.495 30.17 12.497s12.497 18.854 12.497 30.17v170.667c0 11.316-4.497 22.168-12.497 30.17s-18.854 12.497-30.17 12.497h-136.533c-65.634 0-128.576-26.072-174.985-72.481s-72.481-109.353-72.481-174.985v-93.867h-93.867c-11.316 0-22.168-4.495-30.17-12.497s-12.497-18.854-12.497-30.17v-170.667c0-11.315 4.495-22.17 12.497-30.17s18.854-12.497 30.17-12.497h93.867v-298.667c0-11.315 4.495-22.17 12.497-30.17s18.854-12.497 30.17-12.497h204.8c11.315 0 22.17 4.497 30.17 12.497s12.497 18.854 12.497 30.17v298.667h59.733c8.546-0.009 16.896 2.551 23.97 7.343s12.548 11.597 15.71 19.537l68.267 170.667c2.577 6.46 3.537 13.453 2.79 20.369-0.742 6.916-3.166 13.545-7.057 19.311zM670.72 405.333h-73.387c-11.315 0-22.17-4.497-30.17-12.497s-12.497-18.854-12.497-30.17v-298.667h-119.467v298.667c0 11.315-4.497 22.17-12.497 30.17-8.002 8-18.854 12.497-30.17 12.497h-93.867v85.333h93.867c11.316 0 22.168 4.497 30.17 12.497 8 8 12.497 18.854 12.497 30.17v136.533c0.111 42.966 17.229 84.14 47.612 114.521s71.556 47.5 114.522 47.612h93.867v-85.333h-34.133c-14.447 2.105-29.171 1.222-43.26-2.595-14.093-3.816-27.251-10.484-38.66-19.592-6.925-7.249-12.309-15.825-15.829-25.211s-5.103-19.388-4.651-29.402v-136.533c0-11.315 4.497-22.17 12.497-30.17s18.854-12.497 30.17-12.497h107.52l-34.133-85.333z" />
<glyph unicode="&#xe929;" glyph-name="skype" d="M914.534 356.032c6.071 28.416 9.097 57.399 9.024 86.455-0.299 53.133-11.072 105.685-31.697 154.653s-50.697 93.391-88.503 130.728c-37.803 37.338-82.594 66.857-131.814 86.873s-101.905 30.133-155.038 29.775c-23.241 0.060-46.447-1.965-69.329-6.049-35.525 22.322-76.355 34.777-118.291 36.086s-83.464-8.578-120.311-28.642c-36.848-20.064-67.686-49.581-89.342-85.516s-33.35-76.99-33.877-118.943c0.027-41.361 11.128-81.961 32.151-117.581-5.216-26.487-7.911-53.41-8.049-80.405 0.445-52.766 11.367-104.917 32.131-153.429s50.956-92.416 88.825-129.161c37.869-36.749 82.659-65.609 131.772-84.907s101.569-28.646 154.322-27.507c24.964-0.188 49.877 2.185 74.355 7.074 33.783-20.48 72.128-32.235 111.586-34.202 39.808-0.755 79.138 8.759 114.202 27.622 35.063 18.859 64.678 46.434 85.99 80.068 21.312 33.63 33.6 72.183 35.682 111.945 2.086 39.761-6.11 79.39-23.787 115.063zM701.419 277.628c-17.655-23.667-41.711-41.801-69.329-52.254-34.172-13.606-70.763-20.096-107.533-19.076-42.709-1.387-85.124 7.569-123.632 26.099-22.523 11.998-41.833 29.235-56.305 50.253-12.846 17.57-20.182 38.558-21.077 60.305-0.101 5.525 1.018 11.008 3.279 16.051s5.606 9.523 9.797 13.129c9.033 8.205 20.931 12.535 33.128 12.049 9.865 0.41 19.537-2.82 27.179-9.075 8.384-7.817 14.903-17.421 19.075-28.1 5.161-13.389 12.284-25.933 21.129-37.231 8.090-10.615 18.825-18.927 31.125-24.098 16.845-7.1 35.008-10.526 53.278-10.052 25.847-1.412 51.494 5.252 73.382 19.076 8.448 4.937 15.479 11.977 20.412 20.429s7.599 18.039 7.74 27.823c0.29 6.916-0.909 13.811-3.507 20.224-2.603 6.413-6.545 12.194-11.567 16.956-11.072 10.479-24.542 18.086-39.232 22.153-16.047 5.022-38.204 10.048-65.327 16.047-31.151 6.592-61.726 15.663-91.433 27.127-22.832 9.152-42.915 24.038-58.304 43.23-14.557 19.354-22.015 43.127-21.125 67.33-0.029 24.71 8.101 48.738 23.127 68.354 17.026 21.219 39.658 37.242 65.328 46.251 32.585 11.486 66.991 16.926 101.53 16.052 27.204 0.348 54.306-3.368 80.41-11.026 20.305-5.883 39.369-15.423 56.252-28.151 13.453-10.028 24.738-22.674 33.178-37.177 6.451-11.34 9.907-24.135 10.052-37.179 0.013-5.655-1.139-11.253-3.388-16.442-2.253-5.189-5.551-9.856-9.69-13.71-4.13-4.33-9.131-7.735-14.673-9.988s-11.499-3.307-17.481-3.089c-9.707-0.572-19.302 2.274-27.123 8.051-8.077 7.549-14.865 16.366-20.105 26.102-7.996 15.948-19.307 30.004-33.178 41.229-18.59 11.631-40.452 16.921-62.302 15.075-22.566 1.052-44.945-4.547-64.354-16.102-6.972-3.749-12.855-9.237-17.079-15.931-4.22-6.694-6.641-14.366-7.023-22.272 0.054-8.685 2.871-17.127 8.051-24.102 6.225-7.467 14.157-13.323 23.125-17.077 9.161-4.996 18.961-8.721 29.124-11.072 10.052-3.029 26.155-7.027 49.229-12.053 28.151-6.050 54.306-13.077 77.431-20.1 20.941-6.204 40.896-15.334 59.281-27.127 15.654-10.287 28.723-24.043 38.199-40.201 9.685-18.249 14.524-38.677 14.054-59.328 1.195-27.661-6.955-54.916-23.13-77.38z" />
<glyph unicode="&#xe92a;" glyph-name="shopping-bag" d="M810.667 661.333h-128v42.667c0 45.264-17.98 88.673-49.988 120.68-32.004 32.006-75.413 49.987-120.678 49.987s-88.673-17.981-120.68-49.987c-32.006-32.006-49.987-75.416-49.987-120.68v-42.667h-128c-11.316 0-22.168-4.495-30.17-12.497s-12.497-18.854-12.497-30.17v-469.333c0-33.946 13.486-66.505 37.49-90.509s56.562-37.491 90.51-37.491h426.667c33.946 0 66.505 13.487 90.509 37.491s37.491 56.563 37.491 90.509v469.333c0 11.316-4.497 22.168-12.497 30.17s-18.854 12.497-30.17 12.497zM426.667 704c0 22.632 8.99 44.337 24.994 60.34s37.709 24.994 60.339 24.994c22.63 0 44.335-8.99 60.339-24.994s24.994-37.708 24.994-60.34v-42.667h-170.667v42.667zM768 149.333c0-11.315-4.497-22.17-12.497-30.17s-18.854-12.497-30.17-12.497h-426.667c-11.316 0-22.168 4.497-30.17 12.497s-12.497 18.854-12.497 30.17v426.667h85.333v-42.667c0-11.315 4.495-22.17 12.497-30.17s18.854-12.497 30.17-12.497c11.316 0 22.168 4.497 30.17 12.497s12.497 18.854 12.497 30.17v42.667h170.667v-42.667c0-11.315 4.497-22.17 12.497-30.17s18.854-12.497 30.17-12.497c11.315 0 22.17 4.497 30.17 12.497s12.497 18.854 12.497 30.17v42.667h85.333v-426.667z" />
<glyph unicode="&#xe92b;" glyph-name="profile" d="M512 874.667c-82.752-0.157-163.672-24.376-232.905-69.706s-123.791-109.815-157.026-185.601c-33.235-75.786-43.715-159.6-30.161-241.239 13.553-81.634 50.554-157.568 106.495-218.547 39.954-43.307 88.445-77.871 142.419-101.513s112.256-35.844 171.179-35.844c58.927 0 117.21 12.203 171.183 35.844s102.464 58.206 142.417 101.513c55.945 60.979 92.945 136.913 106.496 218.547 13.555 81.638 3.076 165.453-30.161 241.239-33.233 75.786-87.791 140.271-157.026 185.601-69.231 45.33-150.153 69.549-232.909 69.706zM512 106.667c-88.384 0.132-173.271 34.547-236.798 96 19.287 46.955 52.097 87.113 94.261 115.375s91.78 43.354 142.537 43.354c50.761 0 100.378-15.091 142.541-43.354s74.974-68.42 94.259-115.375c-63.526-61.453-148.412-95.868-236.8-96zM426.667 533.333c0 16.877 5.005 33.376 14.383 47.409s22.703 24.97 38.298 31.429c15.59 6.458 32.751 8.148 49.301 4.856 16.555-3.293 31.761-11.42 43.695-23.354s20.058-27.139 23.351-43.692c3.294-16.553 1.604-33.71-4.855-49.305-6.46-15.59-17.395-28.919-31.428-38.293-14.033-9.378-30.532-14.383-47.411-14.383-22.63 0-44.335 8.99-60.339 24.994-16 16.004-24.994 37.709-24.994 60.339zM806.827 277.333c-38.118 65.203-96.789 115.925-166.827 144.213 21.726 24.631 35.883 55.010 40.768 87.492 4.89 32.477 0.299 65.676-13.214 95.612s-35.379 55.336-62.967 73.153c-27.593 17.818-59.742 27.295-92.587 27.295-32.841 0-64.99-9.477-92.581-27.295s-49.456-43.217-62.969-73.153c-13.513-29.935-18.102-63.135-13.215-95.612 4.887-32.482 19.042-62.861 40.767-87.492-70.033-28.288-128.705-79.010-166.827-144.213-30.381 51.75-46.433 110.656-46.507 170.667 0 90.527 35.962 177.347 99.974 241.359s150.832 99.974 241.357 99.974c90.53 0 177.348-35.962 241.361-99.974s99.972-150.832 99.972-241.359c-0.073-60.011-16.124-118.916-46.507-170.667z" />
<glyph unicode="&#xe92c;" glyph-name="location" d="M512 874.667c-90.527 0-177.347-35.962-241.359-99.974s-99.974-150.832-99.974-241.359c0-230.4 300.8-490.667 313.6-501.76 7.727-6.609 17.562-10.244 27.733-10.244s20.006 3.635 27.733 10.244c14.933 11.093 313.6 271.36 313.6 501.76 0 90.527-35.964 177.347-99.972 241.359-64.013 64.013-150.835 99.974-241.361 99.974zM512 121.6c-90.88 85.333-256 269.227-256 411.733 0 67.895 26.971 133.010 74.981 181.019s113.124 74.981 181.019 74.981c67.895 0 133.009-26.971 181.018-74.981 48.013-48.009 74.982-113.124 74.982-181.019 0-142.507-165.12-326.827-256-411.733zM512 704c-33.754 0-66.752-10.010-94.817-28.762s-49.941-45.408-62.858-76.593c-12.917-31.185-16.297-65.499-9.712-98.608 6.585-33.105 22.839-63.514 46.708-87.381s54.278-40.124 87.383-46.707c33.109-6.588 67.422-3.209 98.607 9.711 31.185 12.915 57.843 34.79 76.595 62.857s28.762 61.065 28.762 94.818c0 45.264-17.98 88.673-49.988 120.68-32.004 32.006-75.413 49.987-120.678 49.987zM512 448c-16.879 0-33.374 5.005-47.407 14.383-14.033 9.374-24.973 22.703-31.433 38.293-6.455 15.595-8.147 32.752-4.855 49.305 3.294 16.553 11.422 31.758 23.356 43.692s27.14 20.061 43.691 23.354c16.555 3.293 33.711 1.603 49.306-4.856 15.59-6.459 28.919-17.396 38.293-31.429 9.378-14.033 14.383-30.531 14.383-47.409 0-22.63-8.99-44.335-24.994-60.339s-37.709-24.994-60.339-24.994z" />
<glyph unicode="&#xe92d;" glyph-name="linkedin" d="M873.391 874.666h-722.775c-8.125 0.113-16.192-1.376-23.741-4.381s-14.432-7.468-20.256-13.134c-5.824-5.666-10.476-12.423-13.688-19.887s-4.923-15.487-5.034-23.611v-731.306c0.111-8.124 1.822-16.149 5.034-23.612s7.863-14.221 13.688-19.887c5.824-5.666 12.707-10.129 20.256-13.133 7.549-3.008 15.617-4.497 23.741-4.382h722.775c8.124-0.115 16.192 1.374 23.74 4.382 7.548 3.004 14.434 7.467 20.258 13.133s10.475 12.425 13.687 19.887c3.213 7.462 4.924 15.488 5.035 23.612v731.306c-0.111 8.125-1.822 16.148-5.035 23.611s-7.863 14.221-13.687 19.887c-5.824 5.666-12.71 10.129-20.258 13.134s-15.616 4.494-23.74 4.381zM345.176 160.427h-128v383.999h128v-383.999zM281.176 598.186c-17.653 0-34.583 7.013-47.065 19.495s-19.495 29.412-19.495 47.065c0 17.653 7.013 34.583 19.495 47.065s29.412 19.495 47.065 19.495c9.373 1.063 18.866 0.134 27.856-2.726s17.274-7.587 24.311-13.87c7.036-6.284 12.666-13.983 16.521-22.593s5.847-17.937 5.847-27.372c0-9.434-1.993-18.761-5.847-27.372s-9.485-16.309-16.521-22.593c-7.037-6.284-15.321-11.010-24.311-13.87s-18.482-3.789-27.856-2.726zM806.831 160.427h-128v206.080c0 51.627-18.347 85.333-64.853 85.333-14.396-0.107-28.412-4.621-40.158-12.937-11.75-8.316-20.668-20.032-25.549-33.57-3.341-10.031-4.787-20.591-4.267-31.147v-213.333h-128.002c0 0 0 349.013 0 383.999h128.002v-54.186c11.627 20.177 28.54 36.8 48.913 48.076 20.373 11.278 43.439 16.783 66.714 15.923 85.333 0 147.2-55.039 147.2-173.226v-221.013z" />
<glyph unicode="&#xe92e;" glyph-name="linkedin2" d="M746.667 576.044c-38.199 0.016-75.806-9.432-109.461-27.5-3.068 8.088-8.529 15.051-15.65 19.963s-15.573 7.54-24.222 7.537h-170.668c-5.604 0.003-11.153-1.098-16.332-3.241s-9.883-5.286-13.845-9.248c-3.963-3.962-7.105-8.667-9.248-13.845s-3.244-10.728-3.241-16.332v-512.001c-0.003-5.602 1.098-11.153 3.241-16.329 2.143-5.18 5.286-9.886 9.248-13.845 3.963-3.964 8.668-7.108 13.846-9.25s10.728-3.243 16.332-3.243h170.668c5.602 0 11.153 1.101 16.329 3.243 5.18 2.142 9.886 5.286 13.845 9.25 3.964 3.959 7.108 8.666 9.25 13.845 2.142 5.175 3.243 10.726 3.243 16.329v234.667c0 11.315 4.493 22.17 12.497 30.17 8 8.004 18.854 12.497 30.17 12.497s22.165-4.493 30.17-12.497c8-8 12.497-18.854 12.497-30.17v-234.667c-0.004-5.602 1.097-11.153 3.238-16.329 2.146-5.18 5.286-9.886 9.25-13.845 3.964-3.964 8.666-7.108 13.845-9.25s10.726-3.243 16.333-3.243h170.667c5.602 0 11.153 1.101 16.329 3.243 5.18 2.142 9.886 5.286 13.845 9.25 3.964 3.959 7.108 8.666 9.25 13.845 2.142 5.175 3.243 10.726 3.243 16.329v320c-0.077 62.217-24.828 121.86-68.817 165.85-43.994 43.992-103.637 68.741-165.85 68.818zM896 64.043h-85.333v192c0 33.95-13.487 66.505-37.491 90.509-24.004 24.009-56.563 37.491-90.509 37.491-33.95 0-66.505-13.483-90.513-37.491-24.004-24.004-37.487-56.559-37.487-90.509v-192h-85.333v426.667h85.333v-29.999c0.004-8.841 2.752-17.463 7.868-24.674s12.343-12.655 20.685-15.582c8.341-2.927 17.387-3.191 25.886-0.755 8.499 2.432 16.034 7.445 21.559 14.345 19.149 24.32 45.414 42.052 75.127 50.722s61.389 7.842 90.611-2.364c29.222-10.206 54.524-29.282 72.38-54.562 17.856-25.284 27.371-55.509 27.217-86.464v-277.333zM298.665 576.044h-170.667c-5.604 0.003-11.153-1.098-16.332-3.241s-9.883-5.286-13.845-9.248c-3.963-3.962-7.105-8.667-9.248-13.845s-3.244-10.728-3.241-16.332v-512.001c-0.003-5.602 1.098-11.153 3.241-16.329 2.143-5.18 5.286-9.886 9.248-13.845 3.963-3.964 8.668-7.108 13.846-9.25s10.728-3.243 16.332-3.243h170.667c5.604 0 11.153 1.101 16.332 3.243s9.883 5.286 13.846 9.25c3.962 3.959 7.105 8.666 9.248 13.845 2.143 5.175 3.244 10.726 3.241 16.329v512.001c0.003 5.604-1.098 11.153-3.241 16.332s-5.286 9.883-9.248 13.845c-3.962 3.963-8.667 7.105-13.845 9.248s-10.728 3.244-16.332 3.241zM255.999 64.043h-85.333v426.667h85.333v-426.667zM213.957 894.209c-18.673 1.118-37.377-1.574-54.977-7.912s-33.726-16.19-47.399-28.956c-13.673-12.766-24.606-28.18-32.135-45.304s-11.496-35.601-11.66-54.306c-0.164-18.705 3.478-37.248 10.705-54.502s17.888-32.857 31.335-45.861c13.446-13.004 29.398-23.137 46.883-29.783s36.14-9.665 54.83-8.876h1.208c18.722-1.112 37.474 1.605 55.111 7.985s33.787 16.289 47.464 29.122c13.678 12.833 24.595 28.32 32.085 45.514s11.395 35.735 11.478 54.49c0.082 18.755-3.66 37.329-10.999 54.589s-18.12 32.841-31.684 45.793c-13.565 12.952-29.627 23.003-47.207 29.537s-36.307 9.416-55.038 8.468v0zM212.749 704.044h-1.209c-7.378-0.896-14.863-0.204-21.952 2.030s-13.619 5.957-19.151 10.921c-5.532 4.964-9.939 11.053-12.925 17.859s-4.482 14.173-4.388 21.605c0 31.834 23.875 52.417 60.833 52.417 7.454 0.994 15.034 0.378 22.23-1.804s13.841-5.882 19.487-10.849c5.646-4.967 10.162-11.086 13.244-17.945s4.658-14.299 4.623-21.819c0-31.833-23.875-52.416-60.791-52.416z" />
<glyph unicode="&#xe92f;" glyph-name="facebook" d="M645.124 733.012h80.213v135.68c-38.835 4.038-77.858 6.032-116.907 5.973-116.053 0-195.413-70.827-195.413-200.533v-111.787h-130.987v-151.892h130.987v-389.12h157.013v389.12h130.56l19.627 151.892h-150.187v96.853c0 44.8 11.947 73.813 75.093 73.813z" />
<glyph unicode="&#xe930;" glyph-name="facebook2" d="M891.733 874.667h-759.467c-12.448 0-24.385-4.945-33.187-13.746s-13.746-20.739-13.746-33.187v-759.467c0-6.165 1.214-12.267 3.572-17.963 2.359-5.692 5.816-10.867 10.174-15.223 4.358-4.361 9.532-7.817 15.226-10.176 5.694-2.355 11.797-3.571 17.961-3.571h408.747v330.667h-110.933v128h110.933v96c-2.3 22.538 0.363 45.306 7.795 66.708s19.46 40.917 35.234 57.179c15.774 16.262 34.914 28.876 56.077 36.957 21.167 8.081 43.844 11.434 66.441 9.824 33.207 0.204 66.402-1.505 99.413-5.12v-115.2h-67.84c-53.76 0-64-25.6-64-62.72v-82.347h128l-16.64-128h-111.36v-331.947h217.6c6.165 0 12.267 1.216 17.963 3.571 5.692 2.359 10.867 5.815 15.223 10.176 4.361 4.356 7.817 9.532 10.176 15.223 2.355 5.696 3.571 11.797 3.571 17.963v759.467c0 6.163-1.216 12.266-3.571 17.961-2.359 5.694-5.815 10.868-10.176 15.226-4.356 4.358-9.532 7.815-15.223 10.174-5.696 2.359-11.797 3.572-17.963 3.572z" />
<glyph unicode="&#xe931;" glyph-name="cart2" d="M896 277.333h-597.333c-11.316 0-22.168 4.497-30.17 12.497s-12.497 18.854-12.497 30.17c0 11.315 4.495 22.17 12.497 30.17s18.854 12.497 30.17 12.497h445.44c28.531 0 56.243 9.527 78.737 27.076 22.494 17.545 38.481 42.103 45.423 69.777l70.4 276.907c1.6 6.297 1.737 12.876 0.405 19.235s-4.096 12.33-8.085 17.458c-4.151 5.26-9.481 9.468-15.556 12.285-6.080 2.817-12.736 4.163-19.43 3.929h-607.573c-8.803 24.898-25.091 46.464-46.632 61.741s-47.28 23.518-73.688 23.592h-40.107c-11.316 0-22.168-4.495-30.17-12.497s-12.497-18.854-12.497-30.17c0-11.316 4.495-22.168 12.497-30.17s18.854-12.497 30.17-12.497h40.107c9.746 0.284 19.296-2.779 27.060-8.679s13.271-14.281 15.607-23.748l2.56-20.48 73.813-288.427c-33.948-1.527-65.898-16.478-88.823-41.562-22.924-25.088-34.945-58.253-33.417-92.198s16.478-65.899 41.563-88.823c25.085-22.925 58.249-34.944 92.197-33.417h7.68c-7.017-19.332-9.272-40.073-6.574-60.463s10.271-39.829 22.075-56.674c11.805-16.841 27.494-30.592 45.74-40.085s38.511-14.447 59.078-14.447c20.57 0 40.832 4.954 59.076 14.447 18.249 9.493 33.937 23.245 45.743 40.085 11.806 16.845 19.375 36.284 22.076 56.674 2.697 20.39 0.444 41.131-6.575 60.463h100.693c-7.019-19.332-9.271-40.073-6.575-60.463 2.701-20.39 10.27-39.829 22.076-56.674 11.806-16.841 27.494-30.592 45.743-40.085 18.244-9.493 38.507-14.447 59.076-14.447s40.832 4.954 59.076 14.447c18.249 9.493 33.937 23.245 45.743 40.085 11.806 16.845 19.375 36.284 22.076 56.674 2.697 20.39 0.444 41.131-6.575 60.463h7.68c11.315 0 22.17 4.497 30.17 12.497s12.497 18.854 12.497 30.17c0 11.315-4.497 22.17-12.497 30.17s-18.854 12.497-30.17 12.497zM841.387 704l-55.893-223.573c-2.338-9.468-7.842-17.847-15.607-23.748-7.761-5.901-17.314-8.964-27.059-8.678h-368.213l-64 256h530.773zM426.667 106.667c-8.439 0-16.688 2.5-23.704 7.189s-12.485 11.354-15.715 19.149c-3.229 7.795-4.074 16.375-2.428 24.653s5.71 15.881 11.677 21.845c5.967 5.969 13.57 10.031 21.846 11.678s16.857 0.802 24.652-2.428c7.795-3.23 14.46-8.7 19.149-15.714 4.689-7.019 7.189-15.266 7.189-23.706 0-11.315-4.497-22.17-12.497-30.17s-18.854-12.497-30.17-12.497zM768 106.667c-8.439 0-16.687 2.5-23.706 7.189-7.014 4.689-12.484 11.354-15.714 19.149s-4.075 16.375-2.428 24.653c1.647 8.277 5.709 15.881 11.678 21.845 5.965 5.969 13.568 10.031 21.845 11.678s16.858 0.802 24.653-2.428c7.795-3.23 14.46-8.7 19.149-15.714 4.689-7.019 7.189-15.266 7.189-23.706 0-11.315-4.497-22.17-12.497-30.17s-18.854-12.497-30.17-12.497z" />
<glyph unicode="&#xe932;" glyph-name="Outline-1" d="M896 277.333h-597.333c-11.316 0-22.168 4.497-30.17 12.497s-12.497 18.854-12.497 30.17c0 11.315 4.495 22.17 12.497 30.17s18.854 12.497 30.17 12.497h445.44c28.531 0 56.243 9.527 78.737 27.076 22.494 17.545 38.481 42.103 45.423 69.777l70.4 276.907c1.6 6.297 1.737 12.876 0.405 19.235s-4.096 12.33-8.085 17.458c-4.151 5.26-9.481 9.468-15.556 12.285-6.080 2.817-12.736 4.163-19.43 3.929h-607.573c-8.803 24.898-25.091 46.464-46.632 61.741s-47.28 23.518-73.688 23.592h-40.107c-11.316 0-22.168-4.495-30.17-12.497s-12.497-18.854-12.497-30.17c0-11.316 4.495-22.168 12.497-30.17s18.854-12.497 30.17-12.497h40.107c9.746 0.284 19.296-2.779 27.060-8.679s13.271-14.281 15.607-23.748l2.56-20.48 73.813-288.427c-33.948-1.527-65.898-16.478-88.823-41.562-22.924-25.088-34.945-58.253-33.417-92.198s16.478-65.899 41.563-88.823c25.085-22.925 58.249-34.944 92.197-33.417h7.68c-7.017-19.332-9.272-40.073-6.574-60.463s10.271-39.829 22.075-56.674c11.805-16.841 27.494-30.592 45.74-40.085s38.511-14.447 59.078-14.447c20.57 0 40.832 4.954 59.076 14.447 18.249 9.493 33.937 23.245 45.743 40.085 11.806 16.845 19.375 36.284 22.076 56.674 2.697 20.39 0.444 41.131-6.575 60.463h100.693c-7.019-19.332-9.271-40.073-6.575-60.463 2.701-20.39 10.27-39.829 22.076-56.674 11.806-16.841 27.494-30.592 45.743-40.085 18.244-9.493 38.507-14.447 59.076-14.447s40.832 4.954 59.076 14.447c18.249 9.493 33.937 23.245 45.743 40.085 11.806 16.845 19.375 36.284 22.076 56.674 2.697 20.39 0.444 41.131-6.575 60.463h7.68c11.315 0 22.17 4.497 30.17 12.497s12.497 18.854 12.497 30.17c0 11.315-4.497 22.17-12.497 30.17s-18.854 12.497-30.17 12.497zM841.387 704l-55.893-223.573c-2.338-9.468-7.842-17.847-15.607-23.748-7.761-5.901-17.314-8.964-27.059-8.678h-368.213l-64 256h530.773zM426.667 106.667c-8.439 0-16.688 2.5-23.704 7.189s-12.485 11.354-15.715 19.149c-3.229 7.795-4.074 16.375-2.428 24.653s5.71 15.881 11.677 21.845c5.967 5.969 13.57 10.031 21.846 11.678s16.857 0.802 24.652-2.428c7.795-3.23 14.46-8.7 19.149-15.714 4.689-7.019 7.189-15.266 7.189-23.706 0-11.315-4.497-22.17-12.497-30.17s-18.854-12.497-30.17-12.497zM768 106.667c-8.439 0-16.687 2.5-23.706 7.189-7.014 4.689-12.484 11.354-15.714 19.149s-4.075 16.375-2.428 24.653c1.647 8.277 5.709 15.881 11.678 21.845 5.965 5.969 13.568 10.031 21.845 11.678s16.858 0.802 24.653-2.428c7.795-3.23 14.46-8.7 19.149-15.714 4.689-7.019 7.189-15.266 7.189-23.706 0-11.315-4.497-22.17-12.497-30.17s-18.854-12.497-30.17-12.497z" />
<glyph unicode="&#xe933;" glyph-name="call" d="M829.444 405.333c-9.387 0-19.2 2.987-28.587 5.12-19.008 4.19-37.687 9.749-55.893 16.64-19.793 7.202-41.553 6.827-61.086-1.050s-35.465-22.699-44.727-41.617l-9.387-19.2c-41.557 23.117-79.744 51.831-113.493 85.333-33.502 33.749-62.217 71.936-85.333 113.494l17.92 11.947c18.918 9.262 33.741 25.193 41.617 44.728s8.252 41.292 1.050 61.085c-6.775 18.243-12.335 36.915-16.64 55.893-2.133 9.387-3.84 19.2-5.12 29.013-5.18 30.054-20.924 57.27-44.39 76.747s-53.117 29.936-83.61 29.493h-128c-18.388 0.173-36.597-3.619-53.388-11.116s-31.77-18.525-43.916-32.331c-12.146-13.807-21.175-30.068-26.472-47.677s-6.737-36.154-4.224-54.37c22.73-178.747 104.364-344.828 232.006-472.005 127.644-127.181 294.018-208.209 472.847-230.289h16.213c31.462-0.047 61.841 11.499 85.333 32.427 13.5 12.075 24.282 26.871 31.637 43.422 7.351 16.55 11.115 34.47 11.029 52.578v128c-0.521 29.636-11.315 58.176-30.537 80.738-19.217 22.566-45.675 37.764-74.85 42.995zM850.778 149.333c-0.009-6.059-1.306-12.045-3.806-17.562s-6.148-10.441-10.701-14.438c-4.753-4.139-10.325-7.228-16.354-9.067s-12.378-2.381-18.633-1.6c-159.791 20.489-308.215 93.589-421.857 207.774-113.644 114.185-186.040 262.953-205.769 422.84-0.679 6.25-0.084 12.573 1.749 18.586s4.867 11.593 8.917 16.401c3.998 4.551 8.92 8.199 14.438 10.7s11.505 3.799 17.562 3.807h128c9.922 0.221 19.61-3.024 27.398-9.176s13.187-14.827 15.269-24.53c1.707-11.662 3.84-23.182 6.4-34.56 4.929-22.491 11.488-44.594 19.627-66.133l-59.733-27.733c-5.107-2.343-9.702-5.673-13.519-9.796s-6.782-8.96-8.725-14.233c-1.943-5.273-2.825-10.877-2.595-16.492s1.565-11.129 3.932-16.225c61.406-131.529 167.134-237.261 298.667-298.667 10.389-4.267 22.037-4.267 32.427 0 5.321 1.903 10.21 4.847 14.387 8.653 4.173 3.81 7.552 8.41 9.933 13.534l26.453 59.733c22.059-7.889 44.57-14.443 67.413-19.627 11.379-2.56 22.899-4.693 34.56-6.4 9.702-2.082 18.377-7.479 24.529-15.266 6.153-7.791 9.399-17.476 9.178-27.401l0.853-133.12z" />
<glyph unicode="&#xe934;" glyph-name="basket" d="M597.325 192c11.315 0 22.17 4.497 30.17 12.497s12.497 18.854 12.497 30.17v85.333c0 11.315-4.497 22.17-12.497 30.17s-18.854 12.497-30.17 12.497c-11.315 0-22.17-4.497-30.17-12.497s-12.497-18.854-12.497-30.17v-85.333c0-11.315 4.497-22.17 12.497-30.17s18.854-12.497 30.17-12.497zM426.658 192c11.316 0 22.17 4.497 30.17 12.497s12.497 18.854 12.497 30.17v85.333c0 11.315-4.497 22.17-12.497 30.17s-18.854 12.497-30.17 12.497c-11.316 0-22.168-4.497-30.17-12.497s-12.497-18.854-12.497-30.17v-85.333c0-11.315 4.495-22.17 12.497-30.17s18.854-12.497 30.17-12.497zM810.658 704h-58.88l-73.813 147.2c-2.257 5.417-5.602 10.31-9.835 14.374s-9.259 7.211-14.763 9.245c-5.504 2.034-11.366 2.912-17.225 2.577s-11.584-1.874-16.819-4.521c-5.235-2.647-9.869-6.346-13.611-10.865s-6.511-9.762-8.137-15.4c-1.626-5.638-2.069-11.55-1.301-17.367 0.764-5.818 2.718-11.415 5.743-16.442l54.187-108.8h-288.427l54.187 108.8c4.142 9.946 4.367 21.089 0.632 31.194s-11.154 18.423-20.768 23.284c-9.614 4.861-20.711 5.905-31.063 2.923s-19.193-9.77-24.748-19.001l-73.813-147.2h-58.88c-30.157-0.459-59.184-11.552-81.961-31.323s-37.84-46.95-42.534-76.743c-4.693-29.794 1.285-60.287 16.88-86.101 15.595-25.818 39.805-45.299 68.361-55.006l31.573-318.293c3.184-31.684 18.063-61.043 41.731-82.342 23.668-21.303 54.427-33.015 86.269-32.858h357.547c31.842-0.158 62.601 11.554 86.268 32.858 23.667 21.299 38.549 50.658 41.732 82.342l31.573 318.293c28.617 9.737 52.864 29.286 68.45 55.189 15.582 25.903 21.5 56.485 16.695 86.33s-20.015 57.027-42.94 76.73c-22.925 19.704-52.083 30.659-82.313 30.924zM733.431 145.067c-1.062-10.56-6.020-20.348-13.909-27.447s-18.142-11.004-28.757-10.953h-357.547c-10.614-0.051-20.867 3.853-28.756 10.953s-12.849 16.887-13.911 27.447l-30.293 302.933h503.467l-30.293-302.933zM810.658 533.333h-597.334c-11.316 0-22.168 4.495-30.17 12.497s-12.497 18.854-12.497 30.17c0 11.316 4.495 22.168 12.497 30.17s18.854 12.497 30.17 12.497h597.334c11.315 0 22.17-4.495 30.17-12.497s12.497-18.854 12.497-30.17c0-11.316-4.497-22.168-12.497-30.17s-18.854-12.497-30.17-12.497z" />
<glyph unicode="&#xe935;" glyph-name="bars1" d="M128 618.667h768c11.315 0 22.17 4.495 30.17 12.497s12.497 18.854 12.497 30.17c0 11.316-4.497 22.168-12.497 30.17s-18.854 12.497-30.17 12.497h-768c-11.316 0-22.168-4.495-30.17-12.497s-12.497-18.854-12.497-30.17c0-11.316 4.495-22.168 12.497-30.17s18.854-12.497 30.17-12.497zM896 277.333h-768c-11.316 0-22.168-4.497-30.17-12.497s-12.497-18.854-12.497-30.17c0-11.315 4.495-22.17 12.497-30.17s18.854-12.497 30.17-12.497h768c11.315 0 22.17 4.497 30.17 12.497s12.497 18.854 12.497 30.17c0 11.315-4.497 22.17-12.497 30.17s-18.854 12.497-30.17 12.497zM896 490.667h-768c-11.316 0-22.168-4.497-30.17-12.497s-12.497-18.854-12.497-30.17c0-11.315 4.495-22.17 12.497-30.17s18.854-12.497 30.17-12.497h768c11.315 0 22.17 4.497 30.17 12.497s12.497 18.854 12.497 30.17c0 11.315-4.497 22.17-12.497 30.17s-18.854 12.497-30.17 12.497z" />
<glyph unicode="&#xe936;" glyph-name="tick" d="M798.289 652.374c-3.964 3.999-8.683 7.173-13.884 9.339-5.197 2.166-10.773 3.281-16.41 3.281-5.632 0-11.209-1.115-16.405-3.281-5.201-2.166-9.92-5.34-13.884-9.339l-317.869-318.294-133.547 133.973c-4.118 3.981-8.98 7.108-14.307 9.207s-11.016 3.127-16.741 3.029c-5.725-0.098-11.375-1.327-16.626-3.61-5.251-2.278-10.001-5.577-13.98-9.694s-7.106-8.977-9.206-14.306c-2.099-5.329-3.129-11.017-3.030-16.742 0.099-5.722 1.325-11.375 3.607-16.623 2.283-5.252 5.577-10.001 9.695-13.982l163.84-163.84c3.966-3.998 8.685-7.172 13.885-9.34 5.199-2.163 10.776-3.281 16.409-3.281s11.211 1.118 16.407 3.281c5.201 2.167 9.92 5.342 13.888 9.34l348.156 348.161c4.335 3.995 7.791 8.844 10.155 14.242s3.584 11.226 3.584 17.118c0 5.892-1.22 11.721-3.584 17.118s-5.82 10.246-10.155 14.242z" />
<glyph unicode="&#xe937;" glyph-name="Approve" d="M628.053 584.96l-183.040-183.467-70.4 70.4c-3.825 4.467-8.532 8.094-13.825 10.654s-11.059 4.002-16.935 4.228c-5.876 0.226-11.735-0.764-17.211-2.91-5.475-2.142-10.448-5.397-14.606-9.553-4.158-4.16-7.412-9.135-9.556-14.609s-3.135-11.332-2.908-17.212c0.227-5.875 1.666-11.639 4.227-16.934 2.561-5.291 6.188-10.001 10.655-13.824l100.267-100.693c3.987-3.955 8.715-7.083 13.914-9.207 5.197-2.121 10.765-3.2 16.38-3.166 11.191 0.047 21.918 4.493 29.867 12.373l213.333 213.333c3.998 3.968 7.172 8.687 9.34 13.885s3.281 10.776 3.281 16.409-1.114 11.209-3.281 16.409c-2.167 5.199-5.342 9.918-9.34 13.885-7.996 7.947-18.807 12.407-30.080 12.407s-22.084-4.46-30.080-12.407zM512 874.667c-84.386 0-166.878-25.024-237.043-71.906s-124.852-113.519-157.145-191.482c-32.294-77.962-40.743-163.752-24.28-246.516s57.099-158.788 116.77-218.462c59.67-59.669 135.695-100.305 218.46-116.77 82.765-16.461 168.555-8.013 246.515 24.282 77.965 32.294 144.602 86.98 191.484 157.146s71.906 152.657 71.906 237.043c0 56.030-11.038 111.513-32.478 163.278s-52.868 98.801-92.489 138.421c-39.62 39.619-86.656 71.048-138.423 92.49-51.763 21.442-107.247 32.478-163.277 32.478zM512 106.667c-67.507 0-133.502 20.019-189.635 57.523-56.132 37.508-99.881 90.816-125.716 153.186s-32.594 131.004-19.424 197.214c13.17 66.213 45.679 127.033 93.416 174.769s108.556 80.245 174.769 93.416c66.21 13.17 134.844 6.411 197.214-19.424s115.678-69.584 153.186-125.716c37.504-56.132 57.523-122.123 57.523-189.635 0-90.526-35.959-177.348-99.972-241.361-64.013-64.009-150.835-99.972-241.361-99.972z" />
<glyph unicode="&#xe938;" glyph-name="bars" d="M213.333 618.667h597.333c11.315 0 22.17 4.495 30.17 12.497s12.497 18.854 12.497 30.17c0 11.316-4.497 22.168-12.497 30.17s-18.854 12.497-30.17 12.497h-597.333c-11.316 0-22.168-4.495-30.17-12.497s-12.497-18.854-12.497-30.17c0-11.316 4.495-22.168 12.497-30.17s18.854-12.497 30.17-12.497zM896 490.667h-768c-11.316 0-22.168-4.497-30.17-12.497s-12.497-18.854-12.497-30.17c0-11.315 4.495-22.17 12.497-30.17s18.854-12.497 30.17-12.497h768c11.315 0 22.17 4.497 30.17 12.497s12.497 18.854 12.497 30.17c0 11.315-4.497 22.17-12.497 30.17s-18.854 12.497-30.17 12.497zM810.667 277.333h-597.333c-11.316 0-22.168-4.497-30.17-12.497s-12.497-18.854-12.497-30.17c0-11.315 4.495-22.17 12.497-30.17s18.854-12.497 30.17-12.497h597.333c11.315 0 22.17 4.497 30.17 12.497s12.497 18.854 12.497 30.17c0 11.315-4.497 22.17-12.497 30.17s-18.854 12.497-30.17 12.497z" />
<glyph unicode="&#xe939;" glyph-name="adobe" d="M386.987 222.72h118.613l74.667-146.773h108.373l-176.64 462.933-125.013-316.16zM85.333 832v-768l316.587 768h-316.587zM617.813 832l320.853-759.893v759.893h-320.853z" />
<glyph unicode="&#xe93a;" glyph-name="account2" d="M670.293 417.707c41.83 32.909 72.363 78.042 87.347 129.112 14.989 51.071 13.683 105.543-3.729 155.839s-50.069 93.913-93.427 124.783c-43.358 30.871-95.262 47.46-148.484 47.46-53.227 0-105.126-16.589-148.483-47.46s-76.015-74.488-93.428-124.783c-17.414-50.295-18.718-104.768-3.731-155.839s45.519-96.203 87.349-129.112c-71.677-28.715-134.217-76.348-180.954-137.809-46.737-61.466-75.918-134.46-84.433-211.204-0.617-5.602-0.123-11.273 1.452-16.687 1.575-5.41 4.2-10.462 7.727-14.857 7.121-8.883 17.479-14.571 28.795-15.817s22.663 2.057 31.544 9.178c8.882 7.121 14.571 17.481 15.816 28.796 9.369 83.405 49.138 160.435 111.711 216.371s143.56 86.861 227.489 86.861c83.93 0 164.915-30.925 227.49-86.861 62.571-55.936 102.34-132.966 111.71-216.371 1.161-10.483 6.161-20.169 14.042-27.179 7.881-7.014 18.078-10.859 28.625-10.795h4.693c11.183 1.289 21.406 6.942 28.442 15.731 7.031 8.794 10.304 20.006 9.105 31.202-8.555 76.962-37.892 150.144-84.873 211.703-46.976 61.559-109.82 109.171-181.794 137.737zM512 448c-33.754 0-66.752 10.010-94.817 28.762s-49.941 45.41-62.858 76.593c-12.917 31.185-16.297 65.501-9.712 98.607s22.839 63.516 46.708 87.384c23.868 23.868 54.278 40.123 87.383 46.708 33.109 6.585 67.422 3.206 98.607-9.712s57.839-34.793 76.595-62.858c18.752-28.066 28.762-61.063 28.762-94.817 0-45.264-17.98-88.674-49.988-120.678-32.004-32.009-75.413-49.988-120.678-49.988z" />
<glyph unicode="&#xe93b;" glyph-name="account" d="M631.893 436.053c27.008 29.005 42.223 67.038 42.667 106.667 0 42.774-16.99 83.796-47.236 114.042s-71.27 47.238-114.044 47.238c-42.773 0-83.797-16.992-114.042-47.238s-47.238-71.268-47.238-114.042c0.445-39.629 15.66-77.662 42.667-106.667-37.604-18.726-69.964-46.502-94.169-80.836s-39.496-74.146-44.498-115.857c-1.245-11.315 2.057-22.665 9.178-31.543 7.121-8.883 17.479-14.571 28.795-15.817s22.663 2.057 31.544 9.178c8.882 7.121 14.571 17.481 15.816 28.796 5.091 41.34 25.124 79.386 56.324 106.978 31.198 27.593 71.412 42.825 113.063 42.825s81.865-15.232 113.062-42.825c31.202-27.593 51.234-65.638 56.324-106.978 1.186-10.94 6.554-21.001 14.98-28.075 8.431-7.078 19.264-10.624 30.246-9.899h4.693c11.183 1.289 21.406 6.942 28.442 15.731 7.031 8.794 10.304 20.006 9.105 31.202-4.629 41.489-19.439 81.195-43.11 115.584-23.671 34.385-55.467 62.396-92.57 81.536zM512 466.773c-15.023 0-29.705 4.454-42.193 12.8s-22.225 20.207-27.972 34.082c-5.747 13.879-7.253 29.149-4.322 43.881s10.163 28.265 20.787 38.886c10.62 10.621 24.154 17.855 38.882 20.785 14.733 2.93 30.003 1.426 43.883-4.322 13.875-5.748 25.737-15.483 34.082-27.972s12.8-27.173 12.8-42.193c0-20.143-8-39.458-22.246-53.705-14.242-14.242-33.557-22.242-53.7-22.242zM810.667 874.667h-597.333c-33.948 0-66.505-13.486-90.51-37.49s-37.49-56.562-37.49-90.51v-597.333c0-33.946 13.486-66.505 37.49-90.509s56.562-37.491 90.51-37.491h597.333c33.946 0 66.505 13.487 90.509 37.491s37.491 56.563 37.491 90.509v597.333c0 33.948-13.487 66.505-37.491 90.51s-56.563 37.49-90.509 37.49zM853.333 149.333c0-11.315-4.497-22.17-12.497-30.17s-18.854-12.497-30.17-12.497h-597.333c-11.316 0-22.168 4.497-30.17 12.497s-12.497 18.854-12.497 30.17v597.333c0 11.316 4.495 22.168 12.497 30.17s18.854 12.497 30.17 12.497h597.333c11.315 0 22.17-4.495 30.17-12.497s12.497-18.854 12.497-30.17v-597.333z" />
<glyph unicode="&#xe93c;" glyph-name="fax-free-5-svgrepo-com" d="M859.368 632.572v170.006l-157.452 157.422h-368.052v-297.346c-25.536 21.224-58.136 34.272-93.922 34.272h-33.172c-40.792 0.030-77.552-16.648-103.906-43.468-26.386-26.806-42.54-63.858-42.524-104.558v-442.432c0.016-94.030 76.438-170.436 170.47-170.468h562.384c94.030 0.032 170.438 76.438 170.468 170.468v369.008c-0.030 70.58-43.066 131.222-104.294 157.096zM381.352 912.514h300.902l2.426-2.426v-125.688h125.718l1.484-1.484v-138.054c-6.136 0.68-12.366 1.082-18.688 1.082h-411.842v266.57zM112.556 548.9c0 52.032 42.184 94.216 94.214 94.216h33.172c52.032 0 94.216-42.184 94.216-94.216v-239.796c0-52.030-42.184-94.216-94.216-94.216h-33.172c-52.032 0-94.214 42.186-94.214 94.216v239.796zM909.852 106.468c0-64.428-52.232-116.66-116.66-116.66h-562.384c-64.428 0-116.66 52.232-116.66 116.66v95.636c24.872-21.564 57.208-34.702 92.622-34.702h33.172c78.14 0 141.702 63.564 141.702 141.702v283.032h411.548c64.428 0 116.66-52.232 116.66-116.662v-369.006zM473.96 186.184c-16.988 0-30.762-13.788-30.762-30.778 0-16.988 13.774-30.76 30.762-30.76s30.776 13.772 30.776 30.76c-0.002 16.99-13.79 30.778-30.776 30.778zM632.262 186.184c-16.99 0-30.762-13.788-30.762-30.778 0-16.988 13.772-30.76 30.762-30.76 16.988 0 30.776 13.772 30.776 30.76 0 16.99-13.788 30.778-30.776 30.778zM790.566 186.184c-16.988 0-30.762-13.788-30.762-30.778 0-16.988 13.772-30.76 30.762-30.76 17.004 0 30.776 13.772 30.776 30.76 0 16.99-13.774 30.778-30.776 30.778zM473.96 286.458c-16.988 0-30.762-13.788-30.762-30.776s13.774-30.762 30.762-30.762c16.988 0 30.776 13.774 30.776 30.762-0.002 16.988-13.79 30.776-30.776 30.776zM632.262 286.458c-16.99 0-30.762-13.788-30.762-30.776s13.772-30.762 30.762-30.762c16.988 0 30.776 13.774 30.776 30.762s-13.788 30.776-30.776 30.776zM790.566 286.458c-16.988 0-30.762-13.788-30.762-30.776s13.772-30.762 30.762-30.762c17.004 0 30.776 13.774 30.776 30.762s-13.774 30.776-30.776 30.776zM473.96 386.702c-16.988 0-30.762-13.788-30.762-30.776s13.774-30.762 30.762-30.762c16.988 0 30.776 13.774 30.776 30.762s-13.79 30.776-30.776 30.776zM632.262 386.702c-16.99 0-30.762-13.788-30.762-30.776s13.772-30.762 30.762-30.762c16.988 0 30.776 13.774 30.776 30.762s-13.788 30.776-30.776 30.776zM790.566 386.702c-16.988 0-30.762-13.788-30.762-30.776s13.772-30.762 30.762-30.762c17.004 0 30.776 13.774 30.776 30.762s-13.774 30.776-30.776 30.776zM792.11 496.608h-316.574c-17.482 0-31.656-14.176-31.656-31.658 0-17.484 14.174-31.658 31.656-31.658h316.576c17.484 0 31.658 14.174 31.658 31.658-0.002 17.482-14.176 31.658-31.66 31.658z" />
<glyph unicode="&#xe93d;" glyph-name="fax-machine-svgrepo-com" d="M378.778 922.675c-18.852-4.557-41.021-23.204-50.76-43.090l-4.966-9.943-0.625-166.144-0.625-166.349h-9.738c-23.204 0-47.852-10.568-66.294-28.385l-11.172-10.977-9.533 7.455c-14.090 10.568-36.669 21.125-53.238 24.648-68.157 14.295-134.246-25.272-157.655-94.259-3.727-10.772-3.932-20.716-3.932-180.224 0-168.632 0-168.837 4.557-183.337 10.772-33.772 38.328-66.499 69.396-81.623 46.408-22.999 95.293-18.852 137.759 11.397l13.261 9.523 11.807-11.182c6.42-6.216 15.954-13.67 21.135-16.783 21.34-12.431 4.762-11.807 346.993-11.807 203.223 0 315.924 0.829 321.925 2.273 23.409 5.386 50.545 25.692 63.805 47.647 13.67 22.784 13.261 15.124 12.636 238.234l-0.625 201.779-4.762 11.807c-10.148 25.272-33.772 48.476-59.249 58.010-5.796 2.273-17.398 4.557-25.477 5.181l-15.114 1.239v63.396c0 57.59-0.42 64.225-3.932 71.68-4.762 10.363-240.722 246.313-249.426 249.426-6.84 2.683-265.585 2.888-276.152 0.41zM595.886 769.577l0.625-92.6 6.83-13.875c7.875-16.159 20.716-28.59 37.704-36.669l11.397-5.386 193.7-1.249v-82.657h-461.978v325.243h211.098l0.625-92.805zM735.304 758.804l76.646-76.646h-154.337v76.646c0 42.26 0.205 76.646 0.625 76.646 0.215 0 35.011-34.386 77.066-76.646zM938.322 471.675c14.090-6.625 13.466 4.762 13.466-217.723 0-156.201-0.625-201.564-2.693-205.711-1.454-2.693-5.796-7.25-9.533-9.738l-7.045-4.762-639.508 1.044-6.625 6.84-6.84 6.625-0.625 203.018c-0.625 224.768-1.034 214.825 12.431 220.631 5.796 2.488 53.862 2.898 323.379 3.103 284.232-0.010 317.379-0.42 323.594-3.328zM180.111 465.050c13.466-6.216 24.443-16.988 30.454-30.249l4.762-10.568 0.625-166.144c0.42-161.167 0.42-166.554-3.523-177.951-5.806-15.954-16.364-28.385-30.863-35.43-10.977-5.386-13.466-5.796-37.704-5.796-21.955 0-27.341 0.625-35.42 4.352-13.67 6.42-23.613 16.159-30.249 29.42l-5.796 11.807v168.847c0 160.553 0.205 169.247 3.932 178.985 4.352 11.602 15.534 24.863 24.863 29.624 13.67 7.25 22.784 8.909 45.783 8.284 18.432-0.42 24.852-1.454 33.137-5.181zM429.742 379.699v-31.078h80.794v62.157h-80.794v-31.078zM572.682 379.699v-31.078h82.862v62.157h-82.862v-31.078zM717.701 379.699v-31.078h82.862v62.157h-82.862v-31.078zM429.742 255.406v-31.078h80.794v62.157h-80.794v-31.078zM572.682 255.406v-31.078h82.862v62.157h-82.862v-31.078zM717.701 255.406v-31.078h82.862v62.157h-82.862v-31.078zM429.742 131.103v-31.078h80.794v62.157h-80.794v-31.078zM572.682 131.103v-31.078h82.862v62.157h-82.862v-31.078zM717.701 131.103v-31.078h82.862v62.157h-82.862v-31.078z" />
<glyph unicode="&#xe93e;" glyph-name="cloud-computing-svgrepo-com-2" d="M963.2 921h-419c-12.4 0-23.6-5.6-31-14.4-34.6 19.2-72.6 29.4-111.4 29.4-141 0-255.8-131.8-255.8-293.6 0-12.8 0.8-25.8 2.4-39-76.4-52.6-124.4-148.2-124.4-252 0-162 114.8-293.6 255.8-293.6h223.6v-61c0-22.6 18.2-40.8 40.8-40.8h419c22.6 0 40.8 18.2 40.8 40.8v883.4c0 22.6-18.2 40.8-40.8 40.8zM503.4 139.4h-223.6c-96 0-174 95-174 212 0 85 41.8 161.6 106.2 195 16.2 8.4 24.8 26.6 21.2 44.4s-5.4 34.6-5.4 51.4c0 116.8 78 212 174 212 36.8 0 71.8-13.8 101.6-40.2v-674.6zM922.4 37.6h-337.4v801.8h337.4v-801.8zM706.4 667.8h94.4c22.6 0 40.8 18.2 40.8 40.8s-18.2 40.8-40.8 40.8h-94.4c-22.6 0-40.8-18.2-40.8-40.8s18.2-40.8 40.8-40.8zM796 181.8c0-23.417-18.983-42.4-42.4-42.4s-42.4 18.983-42.4 42.4c0 23.417 18.983 42.4 42.4 42.4s42.4-18.983 42.4-42.4z" />
<glyph unicode="&#xe93f;" glyph-name="cloud-computing-svgrepo-com-1" d="M503.8 37.6c-35.8 0-65 29.2-65 65s29.2 65 65 65c35.8 0 65-29.2 65-65 0.2-35.8-29-65-65-65zM105.8 515.6c0 29 29.6 53.4 66 54.6 22 0.8 39.6 18.8 39.6 40.8 0 0.4 0 0.8 0 1.2 0.4 71.8 70.2 130.2 155.8 130.4 17.8 0 33.6 11.6 39 28.6 15.2 49 67.8 83 127.6 83 70.2 0 128-46.2 131.6-105 1.2-21.6 20-37.8 48.4-37.8 65.8 0 119.4-43.8 120.6-98.2 0-27.8 14-40.6 33.6-44.2 31.4-5.6 54.2-28 54.2-53.6 0-30.2-30.8-55-68.8-55h-678.8c-38 0.2-68.8 24.8-68.8 55.2zM928.6 143.4h-283.6c-14 48-52 86-100.2 100v135.6h308.6c83 0 150.6 61.2 150.6 136.6 0 55.2-36.6 104-90.4 125.2-14.2 78.4-84.8 140.2-173 150.8-23.8 83.4-107.8 144.4-207 144.4-84.4 0-160.6-45.4-194.6-113.2-104.8-11.2-188.8-83.8-206.2-176.2-63.2-16.4-108.8-68.8-108.8-131 0-75.4 67.6-136.6 150.6-136.6h288.4v-135.6c-48.2-14-86.2-52-100.2-100h-283.6c-22.6 0-40.8-18.2-40.8-40.8s18.4-40.8 40.8-40.8h283.6c17.8-61 74.2-105.8 141-105.8s123.2 44.8 141 105.8h283.6c22.6 0 40.8 18.2 40.8 40.8 0.2 22.6-18 40.8-40.6 40.8z" />
<glyph unicode="&#xe940;" glyph-name="cloud-computing-svgrepo-com" d="M764.6 37.2h-501.2c-87 0-157.8 65.2-157.8 145.4 0 19.4 4.2 38.4 12.2 55.8 6.6-13.4 20.6-22.8 36.6-22.8h390.2c22.6 0 40.8 18.2 40.8 40.6v280.8c94-24.2 166.6-94.2 188.2-183.8 3.6-14.8 15.2-26.6 30.2-30 69.8-16.6 118.4-74.4 118.4-140.6 0.2-80-70.6-145.4-157.6-145.4zM503.8 855v-132.8h-308.4v132.8h308.4zM195.4 640.8h308.4v-343.8h-308.4v343.8zM846.6 395.4c-37 114.2-136.6 200.6-261.2 225v275.2c0 22.4-18.2 40.6-40.8 40.6h-390.2c-22.4 0-40.8-18.2-40.8-40.6v-537.4c-2.8-1.4-5.4-3-8-5.2-51.8-43-81.6-105-81.6-170.4 0-125 107.4-226.6 239.4-226.6h501.2c132 0 239.4 101.6 239.4 226.6 0 96.2-63.6 180.6-157.4 212.8zM349.6 583.2c-23.4 0-42.4-18.8-42.4-42.2 0-23.2 19-42.2 42.4-42.2s42.4 18.8 42.4 42.2c0 23.4-19 42.2-42.4 42.2zM349.6 448.4c-23.4 0-42.4-18.8-42.4-42.2 0-23.2 19-42.2 42.4-42.2s42.4 18.8 42.4 42.2c0 23.4-19 42.2-42.4 42.2z" />
<glyph unicode="&#xe941;" glyph-name="smartphone-svgrepo-com" d="M821.6 936h-615.2c-57.6 0-104.4-47-104.4-104.6v-770.8c0-57.8 46.8-104.6 104.4-104.6h615c57.6 0 104.4 47 104.4 104.6v770.8c0.2 57.6-46.6 104.6-104.2 104.6zM844.4 60.6c0-12.6-10.2-23-23-23h-615c-12.6 0-23 10.4-23 23v770.8c0 12.6 10.2 23 23 23h615c12.6 0 23-10.4 23-23v-770.8zM631.4 540.6c-18.8 12.4-44 7.2-56.6-11.6l-20-30.4v229.8c0 22.6-18.2 40.8-40.8 40.8s-40.8-18.2-40.8-40.8v-229.8l-20 30.4c-12.4 18.8-37.8 24-56.6 11.6s-24-37.8-11.6-56.6l94.8-143.8c7.6-11.4 20.4-18.4 34-18.4s26.4 6.8 34 18.4l94.8 143.8c12.8 18.8 7.6 44.2-11.2 56.6zM545.4 157.6h-62.8c-22.6 0-40.8-18.2-40.8-40.8s18.2-40.8 40.8-40.8h62.8c22.6 0 40.8 18.2 40.8 40.8s-18.2 40.8-40.8 40.8z" />
<glyph unicode="&#xe942;" glyph-name="check2-all" d="M790.63 681.373c12.493 12.497 12.493 32.758 0 45.254-12.499 12.497-32.762 12.497-45.261 0l-425.37-425.373-201.373 201.373c-12.497 12.497-32.758 12.497-45.254 0s-12.497-32.758 0-45.254l224-224.003c6.001-5.997 14.14-9.37 22.627-9.37s16.627 3.373 22.627 9.37l448.003 448.003zM521.373 233.37l-57.373 57.376 45.255 45.254 34.745-34.746 425.37 425.373c12.499 12.497 32.762 12.497 45.261 0 12.493-12.497 12.493-32.758 0-45.254l-448.003-448.003c-6.001-5.997-14.14-9.37-22.627-9.37s-16.627 3.373-22.627 9.37zM342.627 502.627l57.373-57.372-45.255-45.255-57.372 57.373c-12.497 12.497-12.497 32.758 0 45.254s32.758 12.497 45.254 0z" />
<glyph unicode="&#xe943;" glyph-name="filetype-pdf" d="M896 672v-608c0-70.694-57.306-128-128-128h-64v64h64c35.347 0 64 28.653 64 64v608h-128c-53.018 0-96 42.98-96 96v128h-352c-35.346 0-64-28.654-64-64v-576h-64v576c0 70.692 57.308 128 128 128h352l288-288zM102.375 201.6h-102.375v-255.936h50.625v85.875h51.375c18.375 0 34 3.686 46.875 11.059 13 7.501 22.875 17.626 29.625 30.374 6.875 12.877 10.313 27.315 10.313 43.315s-3.375 30.438-10.125 43.309c-6.75 12.877-16.563 23.066-29.437 30.566-12.75 7.622-28.375 11.437-46.875 11.437zM137.25 116.288c0-9.504-1.812-17.626-5.437-24.378-3.5-6.624-8.563-11.75-15.187-15.373-6.625-3.501-14.625-5.248-24-5.248h-42.188v89.997h42.188c14 0 24.937-3.872 32.812-11.622s11.812-18.88 11.812-33.376zM215.175 201.6v-255.936h93.375c25.75 0 47.063 5.062 63.938 15.187 17 10.125 29.687 24.813 38.062 44.064 8.375 19.245 12.563 42.374 12.563 69.37 0 26.88-4.188 49.818-12.563 68.813-8.25 19.002-20.812 33.504-37.687 43.501-16.876 10.003-38.313 15.002-64.313 15.002h-93.375zM265.8 160.352h36c15.875 0 28.876-3.251 39-9.754 10.25-6.496 17.812-16.186 22.687-29.062 5-12.877 7.5-28.934 7.5-48.186 0-14.502-1.437-27.123-4.312-37.875-2.75-10.752-6.938-19.75-12.563-27.002-5.5-7.123-12.625-12.499-21.375-16.122-8.75-3.501-19.062-5.254-30.938-5.254h-36v173.254zM505.35 47.475v-101.811h-50.625v255.936h163.125v-41.811h-112.5v-71.437h102.75v-40.877h-102.75z" />
<glyph unicode="&#xe944;" glyph-name="clock-fill" d="M1024 448c0-282.771-229.229-512-512-512s-512 229.229-512 512c0 282.77 229.23 512 512 512s512-229.23 512-512zM512 736c0 17.673-14.327 32-32 32s-32-14.327-32-32v-352c0-11.484 6.153-22.086 16.124-27.784l223.998-127.999c15.347-8.768 34.893-3.437 43.661 11.904 8.768 15.347 3.437 34.893-11.904 43.661l-207.878 118.788v333.43z" />
<glyph unicode="&#xe945;" glyph-name="aparat-svgrepo-com" d="M512.043 891.989c-395.52 0.128-593.621-477.995-314.027-757.675 80.327-80.348 191.309-130.045 313.899-130.045 245.137 0 443.86 198.722 443.861 443.859v0c0 245.077-198.613 443.776-443.733 443.861zM260.693 670.592c21.376 110.848 166.101 140.544 229.376 47.061 63.275-93.44-18.005-216.832-128.853-195.499-58.961 11.628-102.815 62.915-102.815 124.445 0 8.487 0.834 16.779 2.425 24.799l-0.133-0.806zM445.099 287.104c-21.504-110.805-166.272-140.288-229.419-46.763s18.219 216.747 129.067 195.371c58.896-11.681 102.682-62.937 102.682-124.419 0-8.557-0.848-16.916-2.465-24.998l0.135 0.809zM498.859 389.717c-49.152 9.515-62.379 73.685-20.949 101.845 41.387 28.16 96.256-7.68 87.040-56.917-5.063-26.331-27.919-45.952-55.357-45.952-3.782 0-7.476 0.373-11.049 1.083l0.359-0.060zM763.307 225.963c-21.376-110.848-166.101-140.501-229.376-47.061-63.317 93.483 17.963 216.832 128.853 195.541 58.965-11.624 102.823-62.914 102.823-124.446 0-8.502-0.837-16.808-2.434-24.84l0.134 0.807zM679.381 460.715c-110.848 21.376-140.501 166.229-47.019 229.547 93.44 63.275 216.789-18.005 195.499-128.853-11.558-59.046-62.886-102.987-124.478-102.987-8.49 0-16.786 0.835-24.809 2.427l0.806-0.133zM579.84-32.597l96.597-26.027c12.195-3.367 26.197-5.302 40.652-5.302 73.056 0 134.568 49.424 152.924 116.659l0.259 1.112 27.307 102.485c-75.591-99.939-187.155-169.223-315.096-188.594l-2.685-0.334zM905.941 806.443l-100.821 26.837c100.274-77.667 168.86-192.078 185.52-322.711l0.251-2.409 27.733 104.917c3.275 12.031 5.156 25.846 5.156 40.099 0 73.111-49.499 134.662-116.813 152.966l-1.111 0.257zM28.672 370.816l-23.083-87.040c-3.367-12.195-5.302-26.197-5.302-40.652 0-73.056 49.424-134.568 116.659-152.924l1.112-0.259 89.899-23.979c-93.623 74.079-158.872 180.437-178.944 302.032l-0.384 2.821zM441.899 930.048l-94.165 24.576c-12.239 3.392-26.292 5.341-40.801 5.341-73.086 0-134.618-49.464-152.947-116.742l-0.258-1.111-23.509-88.832c75.987 94.022 184.985 158.732 309.132 176.464l2.591 0.304z" />
<glyph unicode="&#xe946;" glyph-name="whatsapp" d="M870.483 811.108c-95.61 96.099-223.098 148.892-358.849 148.892-279.537 0-507.255-227.718-507.498-507.256 0-89.53 23.356-176.629 67.634-253.749l-71.77-262.995 269.076 70.554c74.202-40.384 157.65-61.798 242.557-61.798h0.243c279.54 0 507.252 227.718 507.496 507.502-0.243 135.512-53.037 262.995-148.89 358.851zM511.634 30.637c-75.905 0-150.108 20.442-214.823 58.88l-15.327 9.242-159.597-41.843 42.575 155.706-9.975 16.058c-42.332 67.142-64.471 144.754-64.471 224.309 0 232.097 189.277 421.375 421.86 421.375 112.643 0 218.472-44.035 298.273-123.59 79.552-79.798 123.347-185.629 123.347-298.271-0.243-232.827-189.523-421.864-421.864-421.864zM743.002 346.427c-12.653 6.326-74.931 36.98-86.611 41.359-11.68 4.136-20.193 6.325-28.465-6.326-8.515-12.651-32.844-41.359-40.143-49.631-7.299-8.515-14.84-9.488-27.491-3.163s-53.524 19.706-101.938 63.012c-37.709 33.574-63.011 75.176-70.554 87.827-7.299 12.651-0.73 19.463 5.596 25.788 5.596 5.596 12.651 14.841 18.976 22.14s8.515 12.651 12.651 21.166c4.136 8.515 2.19 15.814-0.973 22.139s-28.465 68.851-39.169 94.153c-10.218 24.815-20.68 21.409-28.465 21.652-7.299 0.486-15.814 0.486-24.329 0.486s-22.139-3.162-33.817-15.814c-11.678-12.651-44.278-43.305-44.278-105.83s45.495-122.617 51.82-131.132c6.326-8.515 89.287-136.488 216.526-191.47 30.168-13.133 53.767-20.922 72.257-26.758 30.411-9.734 57.904-8.275 79.798-5.107 24.326 3.648 74.931 30.65 85.638 60.333 10.458 29.683 10.458 54.983 7.296 60.335s-11.674 8.515-24.326 14.84z" />
<glyph unicode="&#xe947;" glyph-name="telephone-fill" d="M120.625 927.291c47.496 47.495 125.87 42.616 167.108-10.404l114.797-147.597c21.066-27.085 28.511-62.353 20.188-95.642l-35.025-140.1c-3.698-14.791 0.636-30.438 11.416-41.218l157.221-157.221c10.781-10.781 26.427-15.117 41.218-11.417l140.102 35.025c33.286 8.322 68.557 0.878 95.642-20.189l147.597-114.799c53.018-41.235 57.894-119.61 10.4-167.104l-66.17-66.176c-47.341-47.341-118.15-68.128-184.141-44.928-163.857 57.606-317.659 151.923-448.596 282.861-130.937 130.936-225.251 284.739-282.858 448.592-23.201 65.992-2.413 136.802 44.929 184.144l66.171 66.171z" />
<glyph unicode="&#xe948;" glyph-name="menu" d="M128 682.667h768v-86h-768v86zM128 384.667v84h768v-84h-768zM128 170.667v86h768v-86h-768z" />
<glyph unicode="&#xe949;" glyph-name="whatsapp-128-svgrepo-com" d="M810.035 236.993c-12.339-34.929-61.389-63.814-100.506-72.265-26.778-5.685-61.696-10.192-179.354 38.565-132.147 54.749-315.648 249.777-315.648 379.557 0 66.068 38.093 142.993 104.704 142.993 32.051 0 39.117-0.615 49.664-25.915 12.339-29.808 42.445-103.25 46.029-110.779 14.797-30.883-15.053-48.962-36.71-75.85-6.912-8.092-14.746-16.85-5.99-31.907 8.704-14.75 38.81-63.815 83.046-103.199 57.139-50.908 103.475-67.143 120.064-74.057 12.339-5.122 27.085-3.944 36.096 5.685 11.418 12.343 25.6 32.829 40.038 53.008 10.189 14.443 23.142 16.236 36.71 11.114 9.165-3.175 125.645-57.259 130.56-65.914 3.635-6.3 3.635-36.107-8.704-71.036zM512.102 960h-0.256c-282.266 0-511.846-229.65-511.846-512 0-111.957 36.096-215.821 97.485-300.071l-63.795-190.265 196.762 62.893c80.947-53.572 177.562-84.557 281.651-84.557 282.266 0 511.898 229.65 511.898 512s-229.632 512-511.898 512z" />
<glyph unicode="&#xe94a;" glyph-name="instagram-svgrepo-com" d="M768 874.667h-512c-93.867 0-170.667-76.8-170.667-170.667v-512c0-93.867 76.8-170.667 170.667-170.667h512c93.867 0 170.667 76.8 170.667 170.667v512c0 93.867-76.8 170.667-170.667 170.667zM512 234.667c-117.333 0-213.333 96-213.333 213.333s96 213.333 213.333 213.333 213.333-96 213.333-213.333-96-213.333-213.333-213.333zM746.667 640c-23.467 0-42.667 19.2-42.667 42.667s19.2 42.667 42.667 42.667 42.667-19.2 42.667-42.667c0-23.467-19.2-42.667-42.667-42.667z" />
<glyph unicode="&#xe94b;" glyph-name="telegram-alt-svgrepo-com" d="M819.2 772.267l-695.467-268.8c-46.933-17.067-46.933-46.933-8.533-55.467l174.933-55.467 68.267-204.8c8.533-21.333 4.267-29.867 25.6-29.867 17.067 0 25.6 8.533 34.133 17.067 4.267 4.267 42.667 42.667 85.333 85.333l179.2-132.267c34.133-17.067 55.467-8.533 64 29.867l119.467 558.933c12.8 46.933-17.067 72.533-46.933 55.467zM729.6 644.267l-332.8-302.933-12.8-140.8-68.267 204.8 392.533 247.467c17.067 12.8 34.133 4.267 21.333-8.533z" />
<glyph unicode="&#xe94c;" glyph-name="google-plus-svgrepo-com-1" d="M1024 710.4h-179.2v166.4h-38.4v-166.4h-172.8v-51.2h172.8v-166.4h38.4v166.4h179.2zM441.6 384c-25.6 12.8-70.4 57.6-70.4 83.2s6.4 44.8 51.2 76.8c44.8 32 76.8 76.8 76.8 134.4 0 70.4-32 134.4-83.2 153.6h83.2l57.6 44.8c0 0-198.4 0-268.8 0-121.6 0-230.4-89.6-230.4-198.4s83.2-192 204.8-192c6.4 0 19.2 0 25.6 0-12.8-12.8-12.8-25.6-12.8-44.8 0-32 19.2-51.2 38.4-76.8-12.8 0-32 0-44.8 0-147.2 0-262.4-96-262.4-192s128-160 275.2-160c166.4 0 262.4 96 262.4 192-6.4 83.2-32 128-102.4 179.2zM300.8 518.4c-70.4 0-134.4 76.8-147.2 166.4s32 160 102.4 160c70.4 0 134.4-76.8 147.2-166.4s-32-166.4-102.4-160zM275.2 57.6c-102.4 0-179.2 64-179.2 140.8s89.6 140.8 192 140.8c25.6 0 44.8-6.4 64-12.8 57.6-38.4 96-57.6 108.8-102.4 0-6.4 6.4-19.2 6.4-25.6 0-76.8-51.2-140.8-192-140.8z" />
<glyph unicode="&#xe94e;" glyph-name="message" d="M810.667 789.333h-597.333c-33.948 0-66.505-13.486-90.51-37.49s-37.49-56.562-37.49-90.51v-426.667c0-33.946 13.486-66.505 37.49-90.509s56.562-37.491 90.51-37.491h597.333c33.946 0 66.505 13.487 90.509 37.491s37.491 56.563 37.491 90.509v426.667c0 33.948-13.487 66.505-37.491 90.51s-56.563 37.49-90.509 37.49zM793.173 704l-250.88-250.88c-3.968-3.998-8.687-7.172-13.884-9.34-5.201-2.167-10.778-3.281-16.41-3.281s-11.209 1.114-16.41 3.281c-5.197 2.167-9.916 5.342-13.884 9.34l-250.88 250.88h562.347zM853.333 234.667c0-11.315-4.497-22.17-12.497-30.17s-18.854-12.497-30.17-12.497h-597.333c-11.316 0-22.168 4.497-30.17 12.497s-12.497 18.854-12.497 30.17v409.173l250.88-250.88c24-23.97 56.533-37.436 90.453-37.436s66.453 13.466 90.453 37.436l250.88 250.88v-409.173z" />
<glyph unicode="&#xe94f;" glyph-name="cancel" d="M983.072 743.232l-294.304-296.096 294.304-294.336c12.32-12.288 12.32-32.224 0-44.544l-133.632-133.6c-12.256-12.32-32.192-12.32-44.512 0l-293.824 293.824-292.064-293.824c-12.288-12.32-32.224-12.32-44.544 0l-133.6 133.6c-12.288 12.32-12.288 32.256 0 44.544l292.064 293.824-292.032 292.032c-12.288 12.288-12.288 32.224 0 44.544l133.6 133.6c12.288 12.32 32.224 12.32 44.544 0l291.52-291.52 294.368 296.096c12.32 12.32 32.256 12.32 44.512 0l133.632-133.6c12.256-12.32 12.256-32.256-0.032-44.544z" />
<glyph unicode="&#xe950;" glyph-name="cross" d="M734.618 212.531c-24.013-24.013-62.925-24.013-86.886 0l-135.731 155.136-135.731-155.085c-24.013-24.013-62.925-24.013-86.886 0-24.013 24.013-24.013 62.925 0 86.886l141.21 161.28-141.261 161.382c-24.013 24.013-24.013 62.874 0 86.886s62.874 24.013 86.886 0l135.782-155.187 135.731 155.187c24.013 24.013 62.874 24.013 86.886 0s24.013-62.925 0-86.886l-141.21-161.382 141.21-161.28c24.013-24.013 24.013-62.925 0-86.938z" />
<glyph unicode="&#xe951;" glyph-name="clear" d="M810 664.667l-238-238 238-238-60-60-238 238-238-238-60 60 238 238-238 238 60 60 238-238 238 238z" />
<glyph unicode="&#xe952;" glyph-name="close" d="M149.932 85.974c-199.94 199.94-199.94 524.132 0 724.074 200.004 199.94 524.134 199.94 724.136 0 199.94-199.942 199.94-524.134 0-724.074-200.002-199.97-524.132-199.97-724.136 0zM783.566 719.546c-150.002 149.97-393.13 149.97-543.070 0-150.002-149.97-150.002-393.1 0-543.070 149.94-149.972 393.068-149.972 543.070 0 149.942 149.972 149.942 393.1 0 543.070zM376.248 221.726l-90.502 90.532 135.752 135.754-135.752 135.752 90.502 90.534 135.752-135.784 135.754 135.784 90.5-90.534-135.752-135.752 135.752-135.754-90.5-90.532-135.754 135.784-135.752-135.784z" />
<glyph unicode="&#xe953;" glyph-name="search" d="M926.289 94.293l-158.293 157.013c61.444 76.612 91.2 173.854 83.149 271.731s-53.295 188.949-126.434 254.491c-73.135 65.542-168.606 100.571-266.778 97.885-98.17-2.686-191.581-42.884-261.024-112.327s-109.641-162.854-112.328-261.023c-2.686-98.172 32.343-193.643 97.885-266.778 65.542-73.139 156.615-118.383 254.492-126.434s195.119 21.705 271.731 83.149l157.013-157.013c3.968-4.002 8.687-7.177 13.884-9.34 5.201-2.167 10.778-3.281 16.41-3.281s11.209 1.114 16.41 3.281c5.197 2.163 9.916 5.338 13.884 9.34 7.689 7.953 11.989 18.586 11.989 29.653 0 11.063-4.301 21.696-11.989 29.653zM469.329 192c-59.070 0-116.815 17.515-165.93 50.334s-87.396 79.462-110.001 134.037c-22.606 54.575-28.52 114.624-16.996 172.561 11.524 57.935 39.969 111.153 81.739 152.922s94.987 70.214 152.922 81.739c57.934 11.524 117.987 5.609 172.562-16.996s101.218-60.886 134.037-110.001c32.819-49.116 50.334-106.86 50.334-165.929 0-79.211-31.467-155.179-87.475-211.191-56.013-56.009-131.981-87.475-211.191-87.475z" />
<glyph unicode="&#xe954;" glyph-name="messages-2" d="M788.070 241.92l16.64-134.827c4.267-35.413-33.707-60.16-64-41.813l-147.627 87.893c-10.24 5.973-12.8 18.773-7.253 29.013 21.333 39.253 32.853 83.627 32.853 128 0 156.16-133.973 283.307-298.668 283.307-33.707 0-66.56-5.12-97.28-15.36-15.787-5.12-31.147 9.387-27.307 25.6 38.827 155.307 188.16 270.933 366.508 270.933 208.213 0 376.747-157.44 376.747-351.573 0-115.2-59.307-217.173-150.613-281.173zM554.667 310.195c0-50.773-18.773-97.707-50.347-134.827-42.24-51.2-109.227-84.053-184.32-84.053l-111.36-66.133c-18.773-11.52-42.667 4.267-40.107 26.027l10.667 84.053c-57.173 39.68-93.867 103.253-93.867 174.933 0 75.093 40.107 141.227 101.547 180.48 37.973 24.747 83.627 38.827 133.12 38.827 129.707 0 234.667-98.133 234.667-219.307z" />
<glyph unicode="&#xe955;" glyph-name="support-svgrepo-com" d="M512 874.667c-188.513 0-341.333-152.82-341.333-341.333v0-81.067c-25.189-22.031-41.383-53.806-42.66-89.381l-0.006-0.219c2.088-51.569 35.655-94.785 81.913-111.096l0.86-0.264c55.467-132.693 166.827-229.973 301.227-229.973h128v85.333h-128c-96.427 0-183.893 72.533-227.84 187.307l-8.96 23.467-25.173 2.56c-20.855 3.031-36.695 20.789-36.695 42.247 0 0.148 0.001 0.295 0.002 0.442v-0.022c0.097 15.61 8.562 29.222 21.132 36.584l0.201 0.109 21.333 12.373v78.933c0 23.564 19.103 42.667 42.667 42.667v0h426.667c23.564 0 42.667-19.103 42.667-42.667v0-213.333h-174.507c-9.097 24.984-32.644 42.503-60.282 42.503-35.346 0-64-28.654-64-64 0-33.737 26.105-61.378 59.217-63.824l0.211-0.013h324.693c47.128 0 85.333 38.205 85.333 85.333v0 85.333c0 47.128-38.205 85.333-85.333 85.333v0 85.333c0 188.513-152.82 341.333-341.333 341.333v0z" />
<glyph unicode="&#xe956;" glyph-name="notes" d="M682.667 362.667h-341.333c-11.316 0-22.168-4.497-30.17-12.497s-12.497-18.854-12.497-30.17c0-11.315 4.495-22.17 12.497-30.17s18.854-12.497 30.17-12.497h341.333c11.315 0 22.17 4.497 30.17 12.497s12.497 18.854 12.497 30.17c0 11.315-4.497 22.17-12.497 30.17s-18.854 12.497-30.17 12.497zM682.667 533.333h-256c-11.316 0-22.168-4.497-30.17-12.497s-12.497-18.854-12.497-30.17c0-11.315 4.495-22.17 12.497-30.17s18.854-12.497 30.17-12.497h256c11.315 0 22.17 4.497 30.17 12.497s12.497 18.854 12.497 30.17c0 11.315-4.497 22.17-12.497 30.17s-18.854 12.497-30.17 12.497zM853.333 789.333h-128v42.667c0 11.316-4.497 22.168-12.497 30.17s-18.854 12.497-30.17 12.497c-11.315 0-22.17-4.495-30.17-12.497s-12.497-18.854-12.497-30.17v-42.667h-85.333v42.667c0 11.316-4.497 22.168-12.497 30.17s-18.854 12.497-30.17 12.497c-11.315 0-22.17-4.495-30.17-12.497s-12.497-18.854-12.497-30.17v-42.667h-85.333v42.667c0 11.316-4.495 22.168-12.497 30.17s-18.854 12.497-30.17 12.497c-11.316 0-22.168-4.495-30.17-12.497s-12.497-18.854-12.497-30.17v-42.667h-128c-11.316 0-22.168-4.495-30.17-12.497s-12.497-18.854-12.497-30.17v-597.333c0-33.946 13.486-66.505 37.49-90.509s56.562-37.491 90.51-37.491h512c33.946 0 66.505 13.487 90.509 37.491s37.491 56.563 37.491 90.509v597.333c0 11.316-4.497 22.168-12.497 30.17s-18.854 12.497-30.17 12.497zM810.667 149.333c0-11.315-4.497-22.17-12.497-30.17s-18.854-12.497-30.17-12.497h-512c-11.316 0-22.168 4.497-30.17 12.497s-12.497 18.854-12.497 30.17v554.667h85.333v-42.667c0-11.316 4.495-22.168 12.497-30.17s18.854-12.497 30.17-12.497c11.316 0 22.168 4.495 30.17 12.497s12.497 18.854 12.497 30.17v42.667h85.333v-42.667c0-11.316 4.497-22.168 12.497-30.17s18.854-12.497 30.17-12.497c11.315 0 22.17 4.495 30.17 12.497s12.497 18.854 12.497 30.17v42.667h85.333v-42.667c0-11.316 4.497-22.168 12.497-30.17s18.854-12.497 30.17-12.497c11.315 0 22.17 4.495 30.17 12.497s12.497 18.854 12.497 30.17v42.667h85.333v-554.667z" />
<glyph unicode="&#xe957;" glyph-name="question" d="M481.707 307.627c-1.835-2.027-3.546-4.164-5.12-6.4-1.613-2.377-2.906-4.962-3.84-7.68-1.229-2.419-2.091-5.009-2.56-7.68-0.209-2.842-0.209-5.692 0-8.533-0.145-5.598 1.024-11.149 3.413-16.213 1.916-5.295 4.975-10.103 8.956-14.084s8.789-7.040 14.084-8.956c5.107-2.257 10.628-3.422 16.213-3.422s11.106 1.165 16.213 3.422c5.295 1.916 10.103 4.975 14.084 8.956s7.040 8.789 8.956 14.084c1.894 5.188 2.765 10.692 2.56 16.213 0.034 5.615-1.045 11.183-3.166 16.38-2.125 5.197-5.252 9.929-9.207 13.914-3.968 3.998-8.687 7.172-13.884 9.34-5.201 2.167-10.778 3.281-16.41 3.281s-11.209-1.114-16.41-3.281c-5.197-2.167-9.916-5.342-13.884-9.34zM512 874.667c-84.386 0-166.878-25.024-237.043-71.906s-124.852-113.519-157.145-191.482c-32.294-77.962-40.743-163.752-24.28-246.516s57.099-158.788 116.77-218.462c59.67-59.669 135.695-100.305 218.46-116.77 82.765-16.461 168.555-8.013 246.515 24.282 77.965 32.294 144.602 86.98 191.484 157.146s71.906 152.657 71.906 237.043c0 56.030-11.038 111.513-32.478 163.278s-52.868 98.801-92.489 138.421c-39.62 39.619-86.656 71.048-138.423 92.49-51.763 21.442-107.247 32.478-163.277 32.478zM512 106.667c-67.507 0-133.502 20.019-189.635 57.523-56.132 37.508-99.881 90.816-125.716 153.186s-32.594 131.004-19.424 197.214c13.17 66.213 45.679 127.033 93.416 174.769s108.556 80.245 174.769 93.416c66.21 13.17 134.844 6.411 197.214-19.424s115.678-69.584 153.186-125.716c37.504-56.132 57.523-122.123 57.523-189.635 0-90.526-35.959-177.348-99.972-241.361-64.013-64.009-150.835-99.972-241.361-99.972zM512 661.333c-22.481 0.015-44.574-5.893-64.047-17.128s-35.645-27.401-46.886-46.872c-3.087-4.856-5.16-10.287-6.094-15.965s-0.71-11.486 0.659-17.076c1.369-5.589 3.855-10.844 7.307-15.447s7.8-8.462 12.783-11.341c4.982-2.88 10.495-4.721 16.206-5.417 5.713-0.691 11.507-0.226 17.033 1.379 5.53 1.603 10.675 4.308 15.13 7.951 4.45 3.643 8.124 8.15 10.79 13.249 3.759 6.511 9.173 11.913 15.693 15.66 6.515 3.746 13.909 5.704 21.427 5.674 11.315 0 22.17-4.495 30.17-12.497s12.497-18.854 12.497-30.17c0-11.315-4.497-22.17-12.497-30.17s-18.854-12.497-30.17-12.497c-11.315 0-22.17-4.497-30.17-12.497s-12.497-18.854-12.497-30.17v-42.667c0-11.315 4.497-22.17 12.497-30.17s18.854-12.497 30.17-12.497c11.315 0 22.17 4.497 30.17 12.497s12.497 18.854 12.497 30.17v7.68c28.22 10.24 51.942 30.071 67.021 56.026 15.078 25.958 20.553 56.388 15.471 85.974s-20.403 56.442-43.281 75.877c-22.878 19.435-51.861 30.211-81.877 30.444z" />
<glyph unicode="&#xe958;" glyph-name="play-alt" d="M512 960c-282.752 0-512-229.248-512-512s229.248-512 512-512 512 229.248 512 512-229.248 512-512 512zM320 192v512l512.256-256-512.256-256z" />
<glyph unicode="&#xe959;" glyph-name="play" horiz-adv-x="768" d="M0 960l768-512-768-512z" />
<glyph unicode="&#xe95a;" glyph-name="info" d="M512 661.333c-11.315 0-22.17-4.495-30.17-12.497s-12.497-18.854-12.497-30.17v-170.667c0-11.315 4.497-22.17 12.497-30.17s18.854-12.497 30.17-12.497c11.315 0 22.17 4.497 30.17 12.497s12.497 18.854 12.497 30.17v170.667c0 11.316-4.497 22.168-12.497 30.17s-18.854 12.497-30.17 12.497zM551.253 293.547c-0.934 2.718-2.223 5.303-3.84 7.68l-5.12 6.4c-5.999 5.922-13.619 9.933-21.897 11.524-8.277 1.596-16.841 0.704-24.61-2.564-5.171-2.159-9.933-5.193-14.080-8.96-3.955-3.985-7.083-8.717-9.207-13.914-2.121-5.197-3.2-10.765-3.166-16.38 0.068-5.577 1.229-11.085 3.413-16.213 1.916-5.295 4.975-10.103 8.956-14.084s8.789-7.040 14.084-8.956c5.107-2.257 10.628-3.422 16.213-3.422s11.106 1.165 16.213 3.422c5.295 1.916 10.103 4.975 14.084 8.956s7.040 8.789 8.956 14.084c2.185 5.129 3.345 10.637 3.413 16.213 0.209 2.842 0.209 5.692 0 8.533-0.734 2.722-1.886 5.312-3.413 7.68zM512 874.667c-84.386 0-166.878-25.024-237.043-71.906s-124.852-113.519-157.145-191.482c-32.294-77.962-40.743-163.752-24.28-246.516s57.099-158.788 116.77-218.462c59.67-59.669 135.695-100.305 218.46-116.77 82.765-16.461 168.555-8.013 246.515 24.282 77.965 32.294 144.602 86.98 191.484 157.146s71.906 152.657 71.906 237.043c0 56.030-11.038 111.513-32.478 163.278s-52.868 98.801-92.489 138.421c-39.62 39.619-86.656 71.048-138.423 92.49-51.763 21.442-107.247 32.478-163.277 32.478zM512 106.667c-67.507 0-133.502 20.019-189.635 57.523-56.132 37.508-99.881 90.816-125.716 153.186s-32.594 131.004-19.424 197.214c13.17 66.213 45.679 127.033 93.416 174.769s108.556 80.245 174.769 93.416c66.21 13.17 134.844 6.411 197.214-19.424s115.678-69.584 153.186-125.716c37.504-56.132 57.523-122.123 57.523-189.635 0-90.526-35.959-177.348-99.972-241.361-64.013-64.009-150.835-99.972-241.361-99.972z" />
<glyph unicode="&#xe95b;" glyph-name="edit" d="M883.627 247.040l-103.253 103.253c-3.968 3.998-8.687 7.172-13.884 9.34-5.201 2.167-10.778 3.281-16.41 3.281s-11.209-1.114-16.41-3.281c-5.197-2.167-9.916-5.342-13.884-9.34l-152.747-152.747c-3.955-3.985-7.083-8.717-9.207-13.914-2.121-5.197-3.2-10.765-3.166-16.38v-103.253c0-11.315 4.497-22.17 12.497-30.17s18.854-12.497 30.17-12.497h103.253c5.615-0.034 11.183 1.045 16.38 3.166 5.197 2.125 9.929 5.252 13.914 9.207l152.747 152.747c3.998 3.968 7.172 8.687 9.34 13.884 2.167 5.201 3.281 10.778 3.281 16.41s-1.114 11.209-3.281 16.41c-2.167 5.197-5.342 9.916-9.34 13.884zM682.667 106.667h-42.667v42.667l110.080 110.080 42.667-42.667-110.080-110.080zM426.667 106.667h-170.667c-11.316 0-22.168 4.497-30.17 12.497s-12.497 18.854-12.497 30.17v597.333c0 11.316 4.495 22.168 12.497 30.17s18.854 12.497 30.17 12.497h213.333v-128c0-33.948 13.487-66.505 37.491-90.51s56.563-37.49 90.509-37.49h128v-42.667c0-11.315 4.497-22.17 12.497-30.17s18.854-12.497 30.17-12.497c11.315 0 22.17 4.497 30.17 12.497s12.497 18.854 12.497 30.17v85.333c0 0 0 0 0 2.56-0.444 3.92-1.301 7.781-2.56 11.52v3.84c-2.052 4.387-4.787 8.419-8.107 11.947l-256 256c-3.529 3.319-7.561 6.055-11.947 8.107-1.271 0.181-2.564 0.181-3.84 0l-13.653 4.693h-258.56c-33.948 0-66.505-13.486-90.51-37.49s-37.49-56.562-37.49-90.51v-597.333c0-33.946 13.486-66.505 37.49-90.509s56.562-37.491 90.51-37.491h170.667c11.315 0 22.17 4.497 30.17 12.497s12.497 18.854 12.497 30.17c0 11.315-4.497 22.17-12.497 30.17s-18.854 12.497-30.17 12.497zM554.667 729.173l110.507-110.507h-67.84c-11.315 0-22.17 4.495-30.17 12.497s-12.497 18.854-12.497 30.17v67.84zM341.333 362.667h256c11.315 0 22.17 4.497 30.17 12.497s12.497 18.854 12.497 30.17c0 11.315-4.497 22.17-12.497 30.17s-18.854 12.497-30.17 12.497h-256c-11.316 0-22.168-4.497-30.17-12.497s-12.497-18.854-12.497-30.17c0-11.315 4.495-22.17 12.497-30.17s18.854-12.497 30.17-12.497zM341.333 533.333h42.667c11.316 0 22.168 4.495 30.17 12.497s12.497 18.854 12.497 30.17c0 11.316-4.495 22.168-12.497 30.17s-18.854 12.497-30.17 12.497h-42.667c-11.316 0-22.168-4.495-30.17-12.497s-12.497-18.854-12.497-30.17c0-11.316 4.495-22.168 12.497-30.17s18.854-12.497 30.17-12.497zM426.667 277.333h-85.333c-11.316 0-22.168-4.497-30.17-12.497s-12.497-18.854-12.497-30.17c0-11.315 4.495-22.17 12.497-30.17s18.854-12.497 30.17-12.497h85.333c11.315 0 22.17 4.497 30.17 12.497s12.497 18.854 12.497 30.17c0 11.315-4.497 22.17-12.497 30.17s-18.854 12.497-30.17 12.497z" />
<glyph unicode="&#xe95c;" glyph-name="share" d="M768 252.667q52 0 88-37t36-87q0-52-37-89t-87-37-87 37-37 89q0 20 2 28l-302 176q-38-34-88-34-52 0-90 38t-38 90 38 90 90 38q50 0 88-34l300 174q-4 20-4 30 0 52 38 90t90 38 90-38 38-90-38-90-90-38q-48 0-88 36l-300-176q4-20 4-30t-4-30l304-176q36 32 84 32z" />
<glyph unicode="&#xe95d;" glyph-name="eye-show-svgrepo-com" d="M512 575.803c94.257 0 170.667-76.41 170.667-170.667s-76.41-170.667-170.667-170.667c-94.257 0-170.667 76.41-170.667 170.667s76.41 170.667 170.667 170.667zM512 511.803c-58.91 0-106.667-47.756-106.667-106.667s47.756-106.667 106.667-106.667c58.91 0 106.667 47.756 106.667 106.667s-47.756 106.667-106.667 106.667zM512 725.333c196.843 0 366.766-134.4 413.914-322.747 4.292-17.144-6.127-34.521-23.272-38.813s-34.521 6.127-38.813 23.272c-40.059 160.029-184.518 274.288-351.83 274.288-167.384 0-311.889-114.358-351.878-274.481-4.282-17.146-21.653-27.575-38.8-23.293s-27.575 21.653-23.293 38.8c47.065 188.458 217.042 322.974 413.971 322.974z" />
<glyph unicode="&#xe95e;" glyph-name="plus" d="M213.333 384h256v-256c0-23.552 19.115-42.667 42.667-42.667s42.667 19.115 42.667 42.667v256h256c23.552 0 42.667 19.115 42.667 42.667s-19.115 42.667-42.667 42.667h-256v256c0 23.552-19.115 42.667-42.667 42.667s-42.667-19.115-42.667-42.667v-256h-256c-23.552 0-42.667-19.115-42.667-42.667s19.115-42.667 42.667-42.667z" />
<glyph unicode="&#xe95f;" glyph-name="minus" d="M213.333 384h597.333c23.552 0 42.667 19.115 42.667 42.667s-19.115 42.667-42.667 42.667h-597.333c-23.552 0-42.667-19.115-42.667-42.667s19.115-42.667 42.667-42.667z" />
<glyph unicode="&#xe960;" glyph-name="copy" d="M469.333 597.334c-35.328 0-67.413-14.379-90.496-37.504s-37.504-55.168-37.504-90.496v-384c0-35.328 14.379-67.413 37.504-90.496s55.168-37.504 90.496-37.504h384c35.328 0 67.413 14.379 90.496 37.504s37.504 55.168 37.504 90.496v384c0 35.328-14.379 67.413-37.504 90.496s-55.168 37.504-90.496 37.504zM469.333 512h384c11.776 0 22.4-4.736 30.165-12.501s12.501-18.389 12.501-30.165v-384c0-11.776-4.736-22.4-12.501-30.165s-18.389-12.501-30.165-12.501h-384c-11.776 0-22.4 4.736-30.165 12.501s-12.501 18.389-12.501 30.165v384c0 11.776 4.736 22.4 12.501 30.165s18.389 12.501 30.165 12.501zM213.333 341.334h-42.667c-11.776 0-22.4 4.736-30.165 12.501s-12.501 18.389-12.501 30.165v384c0 11.776 4.736 22.4 12.501 30.165s18.389 12.501 30.165 12.501h384c11.776 0 22.4-4.736 30.165-12.501s12.501-18.389 12.501-30.165v-42.667c0-23.552 19.115-42.667 42.667-42.667s42.667 19.115 42.667 42.667v42.667c0 35.328-14.379 67.413-37.504 90.496s-55.168 37.504-90.496 37.504h-384c-35.328 0-67.413-14.379-90.496-37.504s-37.504-55.168-37.504-90.496v-384c0-35.328 14.379-67.413 37.504-90.496s55.168-37.504 90.496-37.504h42.667c23.552 0 42.667 19.115 42.667 42.667s-19.115 42.667-42.667 42.667z" />
<glyph unicode="&#xe961;" glyph-name="noun-quotation-mark-2822684" horiz-adv-x="819" d="M338.523 781.774c152.121-145.029-33.904-454.863-219.144-529.646-28.959-11.698-40.802 22.312-19.7 36.458 78.547 52.607 179.755 284.126 36.855 322.432-143.461 38.441-22.457 384.724 201.989 170.756zM688.685 781.774c152.121-145.029-33.904-454.863-219.135-529.646-28.95-11.698-40.812 22.312-19.68 36.458 78.518 52.607 179.726 284.126 36.826 322.432-143.461 38.441-22.438 384.724 201.989 170.756z" />
<glyph unicode="&#xe962;" glyph-name="noun-quotation-mark-2822674" horiz-adv-x="819" d="M87.865 785.141h289.98v-289.97l-98.924-179.513h-147.747l98.924 179.513h-142.232v289.97zM441.356 785.141h289.98v-289.97l-98.924-179.513h-147.747l98.924 179.513h-142.232v289.97z" />
<glyph unicode="&#xe963;" glyph-name="accept-approved-check-done-ok-tick-svgrepo-com" d="M243.296 446.888c-13.17 13.169-13.17 34.523 0 47.693s34.523 13.169 47.694 0l135.44-135.439 284.445 284.448c13.169 13.17 34.523 13.17 47.693 0 13.173-13.17 13.173-34.523 0-47.694l-306.3-306.302c-14.281-14.281-37.438-14.281-51.719 0l-157.252 157.294zM512 923.429c-262.572 0-475.429-212.857-475.429-475.429s212.857-475.429 475.429-475.429c262.572 0 475.429 212.857 475.429 475.429s-212.857 475.429-475.429 475.429zM109.714 448c0 222.176 180.11 402.286 402.286 402.286s402.286-180.11 402.286-402.286c0-222.175-180.111-402.286-402.286-402.286s-402.286 180.111-402.286 402.286z" />
<glyph unicode="&#xe964;" glyph-name="list-check-minimalistic-svgrepo-com" d="M128 672c0 17.673 14.327 32 32 32h725.333c17.673 0 32-14.327 32-32s-14.327-32-32-32h-725.333c-17.673 0-32 14.327-32 32zM905.015 483.9c13.935-10.871 16.418-30.98 5.551-44.915l-166.4-213.333c-5.939-7.612-14.997-12.139-24.653-12.314s-18.871 4.019-25.084 11.413l-89.6 106.667c-11.366 13.534-9.613 33.719 3.921 45.086s33.719 9.613 45.086-3.921l64.175-76.399 142.089 182.165c10.871 13.935 30.98 16.418 44.915 5.551zM128 458.667c0 17.673 14.327 32 32 32h298.667c17.673 0 32-14.327 32-32s-14.327-32-32-32h-298.667c-17.673 0-32 14.327-32 32zM128 245.333c0 17.673 14.327 32 32 32h298.667c17.673 0 32-14.327 32-32s-14.327-32-32-32h-298.667c-17.673 0-32 14.327-32 32z" />
<glyph unicode="&#xe965;" glyph-name="tick-circle-svgrepo-com-1" d="M666.492 558.729c12.817-12.817 12.817-33.596 0-46.413l-175.044-175.044c-12.817-12.817-33.6-12.817-46.417 0l-87.52 87.522c-12.817 12.817-12.817 33.596 0 46.413s33.598 12.817 46.415 0l64.315-64.311 151.834 151.834c12.817 12.817 33.596 12.817 46.417 0zM512 809.026c-199.389 0-361.026-161.637-361.026-361.026s161.637-361.024 361.026-361.024c199.39 0 361.024 161.634 361.024 361.024s-161.634 361.026-361.024 361.026zM85.333 448c0 235.642 191.025 426.667 426.667 426.667 235.639 0 426.667-191.025 426.667-426.667 0-235.639-191.027-426.667-426.667-426.667-235.642 0-426.667 191.027-426.667 426.667z" />
<glyph unicode="&#xe966;" glyph-name="security-safe-svgrepo-com" d="M892.151 485.534v187.306c0 34.987-26.453 74.667-59.307 87.893l-237.653 97.28c-53.333 21.76-113.493 21.76-166.827 0l-237.652-97.28c-32.427-13.227-58.88-52.907-58.88-87.893v-187.306c0-208.64 151.467-404.053 358.398-461.227 14.080-3.84 29.44-3.84 43.52 0 206.933 57.173 358.4 252.587 358.4 461.227zM543.991 410.867v-112.213c0-17.493-14.507-32-32-32s-32 14.507-32 32v112.213c-43.093 13.653-74.665 53.76-74.665 101.12 0 58.88 47.785 106.666 106.665 106.666s106.667-47.787 106.667-106.666c0-47.787-31.573-87.467-74.667-101.12z" />
<glyph unicode="&#xe967;" glyph-name="chart-column-grow-svgrepo-com" d="M298.667 234.667v-170.667c0-23.564-19.103-42.667-42.667-42.667v0h-128c-23.564 0-42.667 19.103-42.667 42.667v0 170.667c0 23.564 19.103 42.667 42.667 42.667v0h128c23.564 0 42.667-19.103 42.667-42.667v0zM597.333 362.667h-128c-23.564 0-42.667-19.103-42.667-42.667v0-256c0-23.564 19.103-42.667 42.667-42.667v0h128c23.564 0 42.667 19.103 42.667 42.667v0 256c0 23.564-19.103 42.667-42.667 42.667v0zM938.667 533.333h-128c-23.564 0-42.667-19.103-42.667-42.667v0-426.667c0-23.564 19.103-42.667 42.667-42.667v0h128c23.564 0 42.667 19.103 42.667 42.667v0 426.667c0 23.564-19.103 42.667-42.667 42.667v0zM853.333 651.093c4.783-19.443 22.067-33.638 42.667-33.638 24.233 0 43.878 19.645 43.878 43.878 0 3.634-0.442 7.165-1.274 10.541l0.063-0.301-42.667 170.667v3.84c-1.511 3.934-3.233 7.308-5.257 10.469l0.137-0.229-3.413 3.413c-2.376 2.737-5.038 5.128-7.966 7.161l-0.141 0.092s0 0 0 0h-2.987c-4.054 3.448-8.908 6.092-14.236 7.614l-0.271 0.066h-179.2c-23.564 0-42.667-19.103-42.667-42.667s19.103-42.667 42.667-42.667v0h90.88c-184.747-242.773-521.813-298.667-645.547-298.667-23.564 0-42.667-19.103-42.667-42.667s19.103-42.667 42.667-42.667v0c134.827 0 499.627 61.44 706.987 324.693z" />
<glyph unicode="&#xe968;" glyph-name="computer-svgrepo-com-1" d="M85.333 704c0 70.692 57.308 128 128 128h597.333c70.694 0 128-57.308 128-128v-384c0-70.694-57.306-128-128-128h-256v-42.667h85.333c23.565 0 42.667-19.102 42.667-42.667s-19.102-42.667-42.667-42.667h-256c-23.564 0-42.667 19.102-42.667 42.667s19.103 42.667 42.667 42.667h85.333v42.667h-256c-70.692 0-128 57.306-128 128v384zM213.333 746.667c-23.564 0-42.667-19.103-42.667-42.667v-384c0-23.565 19.103-42.667 42.667-42.667h597.333c23.565 0 42.667 19.102 42.667 42.667v384c0 23.564-19.102 42.667-42.667 42.667h-597.333z" />
<glyph unicode="&#xe969;" glyph-name="person-svgrepo-com" d="M512 789.333c94.293 0 170.667-76.373 170.667-170.667s-76.373-170.667-170.667-170.667c-94.293 0-170.667 76.373-170.667 170.667s76.373 170.667 170.667 170.667zM597.333 618.667c0 46.933-38.4 85.333-85.333 85.333s-85.333-38.4-85.333-85.333c0-46.933 38.4-85.333 85.333-85.333s85.333 38.4 85.333 85.333zM768 192c-8.533 30.293-140.8 85.333-256 85.333-114.773 0-246.187-54.613-256-85.333h512zM170.667 192c0 113.493 227.413 170.667 341.333 170.667s341.333-57.173 341.333-170.667v-85.333h-682.667v85.333z" />
<glyph unicode="&#xe96a;" glyph-name="note-business-marketplace-shop-sale-buy-marketing-svgrepo-com" d="M768 800h-64v32c0 17.673-14.327 32-32 32v0h-320c-17.673 0-32-14.327-32-32v0-32h-64c-17.673 0-32-14.327-32-32v0-704c0-17.673 14.327-32 32-32v0h512c17.673 0 32 14.327 32 32v0 704c0 17.673-14.327 32-32 32v0zM384 800h256v-64h-256v64zM736 96h-448v640h32v-32c0-17.673 14.327-32 32-32v0h320c17.673 0 32 14.327 32 32v0 32h32zM672 576c0-17.673-14.327-32-32-32v0h-256c-17.673 0-32 14.327-32 32s14.327 32 32 32v0h256c17.673 0 32-14.327 32-32v0zM672 448c0-17.673-14.327-32-32-32v0h-256c-17.673 0-32 14.327-32 32s14.327 32 32 32v0h256c17.673 0 32-14.327 32-32v0zM672 320c0-17.673-14.327-32-32-32v0h-256c-17.673 0-32 14.327-32 32s14.327 32 32 32v0h256c17.673 0 32-14.327 32-32v0zM672 192c0-17.673-14.327-32-32-32v0h-256c-17.673 0-32 14.327-32 32s14.327 32 32 32v0h256c17.673 0 32-14.327 32-32v0z" />
<glyph unicode="&#xe96b;" glyph-name="shield-svgrepo-com" d="M971.6 817.6l-449.2 119c-6.8 1.8-14 1.8-21 0l-449-119c-18-4.8-30.6-21.2-30.4-39.8 2.4-318.2 172.6-614.6 467.2-812.8 6.8-4.6 14.8-7 22.8-7s16 2.4 22.8 7c294.6 198.2 464.8 494.4 467.2 812.8 0.2 18.6-12.4 35-30.4 39.8zM512 48.4c-248.2 175.8-395 427.6-407.4 698.4l407.4 108 407.4-108c-12.4-270.8-159.2-522.6-407.4-698.4zM383.8 629.2c0-22.6 18.2-40.8 40.8-40.8h44.4l-19.4-176c0-0.8-0.2-1.6-0.2-2.4v-56c0-16 17.4-29 38.6-29h47.2c21.4 0 38.6 13 38.6 29v56c0 0.8 0 1.6-0.2 2.4l-19.4 176h44.4c22.6 0 40.8 18.2 40.8 40.8s-18.2 40.8-40.8 40.8h-174c-22.4 0-40.8-18.4-40.8-40.8z" />
</font>
</defs>
</svg>
